James Bond Thunderball (1965) Full 1080p Latino

373 vistas
1 estrella2 estrellas3 estrellas4 estrellas5 estrellas (Ninguna valoración todavía)
Cargando…

Información de James Bond Thunderball (1965) Full 1080p Latino

Datos de la película

  • Calidad: Full 1080p
  • Audio: Español Latino AC3 5.1 BLURAY - Ingles DTS 5.1 BLURAY
  • Subtitulos: Español Latino PGS - Ingles PGS
  • Resolución: 1920x1080p
  • Formato: MKV
  • Codec: H.264
  • Encoder: Dracarys
  • Mediainfo: Clic para Mostrar Datos Ver
  • Format                                   : Matroska
    Format version                           : Version 4 / Version 2
    File size                                : 11.1 GiB
    Duration                                 : 2 h 10 min
    Overall bit rate                         : 12.2 Mb/s
    Movie name                               : CinemaniaHDD.net
    Encoded date                             : UTC 2018-07-19 22:53:04 / UTC 2018-07-15T04:15:07Z
    Writing application                      : mkvmerge v15.0.0 ('Duel with the Devil') 64-bit
    Writing library                          : libebml v1.3.5 + libmatroska v1.4.5 / Lavf57.7.2

    Video
    ID                                       : 1
    Format                                   : AVC
    Format/Info                              : Advanced Video Codec
    Format profile                           : High@L4.1
    Format settings                          : CABAC / 4 Ref Frames
    Format settings, CABAC                   : Yes
    Format settings, RefFrames               : 4 frames
    Codec ID                                 : V_MPEG4/ISO/AVC
    Duration                                 : 2 h 10 min
    Bit rate                                 : 9 965 kb/s
    Width                                    : 1 920 pixels
    Height                                   : 1 080 pixels
    Display aspect ratio                     : 16:9
    Frame rate mode                          : Constant
    Frame rate                               : 23.976 (24000/1001) FPS
    Color space                              : YUV
    Chroma subsampling                       : 4:2:0
    Bit depth                                : 8 bits
    Scan type                                : Progressive
    Bits/(Pixel*Frame)                       : 0.200
    Stream size                              : 9.08 GiB (82%)
    Title                                    : James Bond Thunderball (1965) Full 1080p Latino
    Writing library                          : x264 core 148 r2708 86b7198
    Encoding settings                        : cabac=1 / ref=4 / deblock=1:0:0 / analyse=0x3:0x133 / me=esa / subme=10 / psy=1 / psy_rd=1.00:0.00 / mixed_ref=1 / me_range=24 / chroma_me=1 / trellis=2 / 8x8dct=1 / cqm=0 / deadzone=21,11 / fast_pskip=1 / chroma_qp_offset=-2 / threads=34 / lookahead_threads=5 / sliced_threads=0 / nr=0 / decimate=1 / interlaced=0 / bluray_compat=0 / constrained_intra=0 / bframes=8 / b_pyramid=2 / b_adapt=2 / b_bias=0 / direct=3 / weightb=1 / open_gop=0 / weightp=2 / keyint=240 / keyint_min=24 / scenecut=40 / intra_refresh=0 / rc_lookahead=60 / rc=crf / mbtree=1 / crf=20.0 / qcomp=0.60 / qpmin=0 / qpmax=69 / qpstep=4 / vbv_maxrate=62500 / vbv_bufsize=78125 / crf_max=0.0 / nal_hrd=none / filler=0 / ip_ratio=1.40 / aq=1:1.00
    Language                                 : English
    Default                                  : Yes
    Forced                                   : No
    Color range                              : Limited
    Color primaries                          : BT.709
    Transfer characteristics                 : BT.709
    Matrix coefficients                      : BT.709
    Statistics Tags Issue                    : mkvmerge v15.0.0 ('Duel with the Devil') 64-bit 2018-07-19 22:53:04 / mkvmerge v15.0.0 ('Duel with the Devil') 64-bit 2018-07-19 22:53:04 / UTC 2018-07-15T04:15:07Z
    FromStats_BitRate                        : 10190403
    FromStats_Duration                       : 02:10:23.399000000
    FromStats_FrameCount                     : 187574
    FromStats_StreamSize                     : 9965449538

    Audio #1
    ID                                       : 2
    Format                                   : AC-3
    Format/Info                              : Audio Coding 3
    Format settings, Endianness              : Big
    Codec ID                                 : A_AC3
    Duration                                 : 2 h 10 min
    Bit rate mode                            : Constant
    Bit rate                                 : 448 kb/s
    Channel(s)                               : 6 channels
    Channel positions                        : Front: L C R, Side: L R, LFE
    Sampling rate                            : 48.0 kHz
    Frame rate                               : 31.250 FPS (1536 SPF)
    Bit depth                                : 16 bits
    Compression mode                         : Lossy
    Stream size                              : 418 MiB (4%)
    Language                                 : Spanish
    Service kind                             : Complete Main
    Default                                  : Yes
    Forced                                   : No
    Statistics Tags Issue                    : mkvmerge v15.0.0 ('Duel with the Devil') 64-bit 2018-07-19 22:53:04 / mkvmerge v15.0.0 ('Duel with the Devil') 64-bit 2018-07-19 22:53:04 / UTC 2018-07-15T04:15:07Z
    FromStats_BitRate                        : 448000
    FromStats_Duration                       : 02:10:23.456000000
    FromStats_FrameCount                     : 244483
    FromStats_StreamSize                     : 438113536

    Audio #2
    ID                                       : 3
    Format                                   : DTS
    Format/Info                              : Digital Theater Systems
    Mode                                     : 16
    Format settings, Endianness              : Big
    Codec ID                                 : A_DTS
    Duration                                 : 2 h 10 min
    Bit rate mode                            : Constant
    Bit rate                                 : 1 509 kb/s
    Channel(s)                               : 6 channels
    Channel positions                        : Front: L C R, Side: L R, LFE
    Sampling rate                            : 48.0 kHz
    Frame rate                               : 93.750 FPS (512 SPF)
    Bit depth                                : 24 bits
    Compression mode                         : Lossy
    Stream size                              : 1.37 GiB (12%)
    Language                                 : English
    Default                                  : No
    Forced                                   : No
    Statistics Tags Issue                    : mkvmerge v15.0.0 ('Duel with the Devil') 64-bit 2018-07-19 22:53:04 / mkvmerge v15.0.0 ('Duel with the Devil') 64-bit 2018-07-19 22:53:04 / UTC 2018-07-15T04:15:07Z
    FromStats_BitRate                        : 1508999
    FromStats_Duration                       : 02:10:23.435000000
    FromStats_FrameCount                     : 733447
    FromStats_StreamSize                     : 1475695364

    Text #1
    ID                                       : 4
    Format                                   : PGS
    Muxing mode                              : zlib
    Codec ID                                 : S_HDMV/PGS
    Codec ID/Info                            : Picture based subtitle format used on BDs/HD-DVDs
    Language                                 : English
    Default                                  : No
    Forced                                   : No
    Statistics Tags Issue                    : mkvmerge v15.0.0 ('Duel with the Devil') 64-bit 2018-07-19 22:53:04 / mkvmerge v15.0.0 ('Duel with the Devil') 64-bit 2018-07-19 22:53:04 / UTC 2018-07-15T04:15:07Z
    FromStats_BitRate                        : 26563
    FromStats_Duration                       : 02:07:48.494000000
    FromStats_FrameCount                     : 2012
    FromStats_StreamSize                     : 25462908

    Text #2
    ID                                       : 5
    Format                                   : PGS
    Muxing mode                              : zlib
    Codec ID                                 : S_HDMV/PGS
    Codec ID/Info                            : Picture based subtitle format used on BDs/HD-DVDs
    Language                                 : Spanish
    Default                                  : No
    Forced                                   : No
    Statistics Tags Issue                    : mkvmerge v15.0.0 ('Duel with the Devil') 64-bit 2018-07-19 22:53:04 / mkvmerge v15.0.0 ('Duel with the Devil') 64-bit 2018-07-19 22:53:04 / UTC 2018-07-15T04:15:07Z
    FromStats_BitRate                        : 23724
    FromStats_Duration                       : 02:08:12.268000000
    FromStats_FrameCount                     : 1880
    FromStats_StreamSize                     : 22811760

    Text #3
    ID                                       : 6
    Format                                   : PGS
    Muxing mode                              : zlib
    Codec ID                                 : S_HDMV/PGS
    Codec ID/Info                            : Picture based subtitle format used on BDs/HD-DVDs
    Title                                    : Forzados
    Language                                 : Spanish
    Default                                  : Yes
    Forced                                   : Yes
    Statistics Tags Issue                    : mkvmerge v15.0.0 ('Duel with the Devil') 64-bit 2018-07-19 22:53:04 / mkvmerge v15.0.0 ('Duel with the Devil') 64-bit 2018-07-19 22:53:04 / UTC 2018-07-15T04:15:07Z
    FromStats_BitRate                        : 368
    FromStats_Duration                       : 02:03:32.989000000
    FromStats_FrameCount                     : 36
    FromStats_StreamSize                     : 341483

    Menu
    00:00:00.000                             : :Chapter 1
    00:04:44.743                             : :Chapter 2
    00:07:44.172                             : :Chapter 3
    00:11:33.193                             : :Chapter 4
    00:18:27.565                             : :Chapter 5
    00:22:46.448                             : :Chapter 6
    00:26:13.030                             : :Chapter 7
    00:29:21.551                             : :Chapter 8
    00:37:03.138                             : :Chapter 9
    00:38:49.369                             : :Chapter 10
    00:44:02.682                             : :Chapter 11
    00:48:42.211                             : :Chapter 12
    00:54:17.546                             : :Chapter 13
    00:58:49.151                             : :Chapter 14
    01:01:38.111                             : :Chapter 15
    01:02:55.939                             : :Chapter 16
    01:06:17.515                             : :Chapter 17
    01:14:24.669                             : :Chapter 18
    01:21:23.420                             : :Chapter 19
    01:25:58.111                             : :Chapter 20
    01:28:53.286                             : :Chapter 21
    01:31:55.343                             : :Chapter 22
    01:36:59.856                             : :Chapter 23
    01:41:45.099                             : :Chapter 24
    01:48:36.176                             : :Chapter 25
    01:51:19.673                             : :Chapter 26
    01:53:14.621                             : :Chapter 27
    01:55:54.156                             : :Chapter 28
    02:03:29.527                             : :Chapter 29
    02:05:03.079                             : :Chapter 30
    02:08:10.933                             : :Chapter 31
    02:09:31.055                             : :Chapter 32

  • Peso: 11.1 GiB

Sinopsis

La organización secreta Spectra se propone infiltrar en la base inglesa de la OTAN a un impostor llamado Angelo, y así lograr apoderarse de un bombardero Vulcan Vindicator equipado con dos bombas nucleares. Cuando logra su propósito, la organización amenaza con destruir una ciudad de EE.UU. o Inglaterra si no le dan 100 millones de libras esterlinas. El agente 007 es el encargado de seguir el caso, y en las Islas Bahamas conoce a Dominó, atractiva amante del misterioso Emilio Largo, que aparenta ser un ocioso millonario pero que en realidad es el número dos de Spectra. Mientras intenta localizar el avión secuestrado, James Bond debe enfrentarse con la cabecilla de los asesinos, Fiona Volpe, y con los secuaces de Emilio Largo.

Ficha técnica

Video trailer de la película

Enlaces de descarga

Rip de Bluray

Descargar James Bond Thunderball (1965) Full 1080p Latino




Aportes de DPeliculasHDmega la pass es:dpeliculashdmega.org Aportes de CinemaniaHD la pass es:cinemaniahdd.com

Películas relacionadas

  • Cam (2018) NF 1080p Latino

    2018
    Cam (2018) NF 1080p Latino

    0.0 1h 34m 2018

    Alice es una camgirl con un código inamovible, que le permite mantener una cierta distancia con los...

    Director: Rachel Penner

    Género: Suspense

    Actores: Samantha Robinson

  • El Justiciero 2 (2018) Full 1080p Latino

    2018
    El Justiciero 2 (2018) Full 1080p Latino

    5.0 2h 0m 2018

    Descargar El Justiciero 2 (2018) Full 1080p Latino, Mega, Google Drive. Robert McCall (Denzel Washington)...

    Director: Donald Sparks

    Género: Acción

    Actores: Wesley Pereira

Comentarios 0