James Bond The Spy Who Loved Me (1977) Full 1080p Latino

584 vistas
1 estrella2 estrellas3 estrellas4 estrellas5 estrellas (Ninguna valoración todavía)
Cargando…

Información de James Bond The Spy Who Loved Me (1977) Full 1080p Latino

Datos de la película

  • Calidad: Full 1080p
  • Audio: Español Latino AC3 5.1 BLURAY - Ingles DTS 5.1 BLURAY
  • Subtitulos: Español Latino PGS - Ingles PGS
  • Resolución: 1920x1080p
  • Formato: MKV
  • Codec: H.264
  • Encoder: Dracarys
  • Mediainfo: Clic para Mostrar Datos Ver
  • Format                                   : Matroska
    Format version                           : Version 4 / Version 2
    File size                                : 10.4 GiB
    Duration                                 : 2 h 5 min
    Overall bit rate                         : 11.9 Mb/s
    Movie name                               : CinemaniaHDD.net
    Encoded date                             : UTC 2018-07-20 02:32:27 / UTC 2018-07-17T09:32:31Z
    Writing application                      : mkvmerge v15.0.0 ('Duel with the Devil') 64-bit
    Writing library                          : libebml v1.3.5 + libmatroska v1.4.5 / Lavf57.7.2

    Video
    ID                                       : 1
    Format                                   : AVC
    Format/Info                              : Advanced Video Codec
    Format profile                           : High@L4.1
    Format settings                          : CABAC / 4 Ref Frames
    Format settings, CABAC                   : Yes
    Format settings, RefFrames               : 4 frames
    Codec ID                                 : V_MPEG4/ISO/AVC
    Duration                                 : 2 h 5 min
    Bit rate                                 : 9 693 kb/s
    Width                                    : 1 920 pixels
    Height                                   : 1 080 pixels
    Display aspect ratio                     : 16:9
    Frame rate mode                          : Constant
    Frame rate                               : 23.976 (24000/1001) FPS
    Color space                              : YUV
    Chroma subsampling                       : 4:2:0
    Bit depth                                : 8 bits
    Scan type                                : Progressive
    Bits/(Pixel*Frame)                       : 0.195
    Stream size                              : 8.51 GiB (82%)
    Title                                    : James Bond The Spy Who Loved Me (1977) Full 1080p Latino
    Writing library                          : x264 core 148 r2708 86b7198
    Encoding settings                        : cabac=1 / ref=4 / deblock=1:0:0 / analyse=0x3:0x133 / me=esa / subme=10 / psy=1 / psy_rd=1.00:0.00 / mixed_ref=1 / me_range=24 / chroma_me=1 / trellis=2 / 8x8dct=1 / cqm=0 / deadzone=21,11 / fast_pskip=1 / chroma_qp_offset=-2 / threads=34 / lookahead_threads=5 / sliced_threads=0 / nr=0 / decimate=1 / interlaced=0 / bluray_compat=0 / constrained_intra=0 / bframes=8 / b_pyramid=2 / b_adapt=2 / b_bias=0 / direct=3 / weightb=1 / open_gop=0 / weightp=2 / keyint=240 / keyint_min=24 / scenecut=40 / intra_refresh=0 / rc_lookahead=60 / rc=crf / mbtree=1 / crf=20.0 / qcomp=0.60 / qpmin=0 / qpmax=69 / qpstep=4 / vbv_maxrate=62500 / vbv_bufsize=78125 / crf_max=0.0 / nal_hrd=none / filler=0 / ip_ratio=1.40 / aq=1:1.00
    Language                                 : English
    Default                                  : Yes
    Forced                                   : No
    Color range                              : Limited
    Color primaries                          : BT.709
    Transfer characteristics                 : BT.709
    Matrix coefficients                      : BT.709
    Statistics Tags Issue                    : mkvmerge v15.0.0 ('Duel with the Devil') 64-bit 2018-07-20 02:32:27 / mkvmerge v15.0.0 ('Duel with the Devil') 64-bit 2018-07-20 02:32:27 / UTC 2018-07-17T09:32:31Z
    FromStats_BitRate                        : 9902926
    FromStats_Duration                       : 02:05:40.492000000
    FromStats_FrameCount                     : 180791
    FromStats_StreamSize                     : 9334117427

    Audio #1
    ID                                       : 2
    Format                                   : AC-3
    Format/Info                              : Audio Coding 3
    Format settings, Endianness              : Big
    Codec ID                                 : A_AC3
    Duration                                 : 2 h 5 min
    Bit rate mode                            : Constant
    Bit rate                                 : 448 kb/s
    Channel(s)                               : 6 channels
    Channel positions                        : Front: L C R, Side: L R, LFE
    Sampling rate                            : 48.0 kHz
    Frame rate                               : 31.250 FPS (1536 SPF)
    Bit depth                                : 16 bits
    Compression mode                         : Lossy
    Stream size                              : 403 MiB (4%)
    Language                                 : Spanish
    Service kind                             : Complete Main
    Default                                  : Yes
    Forced                                   : No
    Statistics Tags Issue                    : mkvmerge v15.0.0 ('Duel with the Devil') 64-bit 2018-07-20 02:32:27 / mkvmerge v15.0.0 ('Duel with the Devil') 64-bit 2018-07-20 02:32:27 / UTC 2018-07-17T09:32:31Z
    FromStats_BitRate                        : 448000
    FromStats_Duration                       : 02:05:40.544000000
    FromStats_FrameCount                     : 235642
    FromStats_StreamSize                     : 422270464

    Audio #2
    ID                                       : 3
    Format                                   : DTS
    Format/Info                              : Digital Theater Systems
    Mode                                     : 16
    Format settings, Endianness              : Big
    Codec ID                                 : A_DTS
    Duration                                 : 2 h 5 min
    Bit rate mode                            : Constant
    Bit rate                                 : 1 509 kb/s
    Channel(s)                               : 6 channels
    Channel positions                        : Front: L C R, Side: L R, LFE
    Sampling rate                            : 48.0 kHz
    Frame rate                               : 93.750 FPS (512 SPF)
    Bit depth                                : 24 bits
    Compression mode                         : Lossy
    Stream size                              : 1.32 GiB (13%)
    Language                                 : English
    Default                                  : No
    Forced                                   : No
    Statistics Tags Issue                    : mkvmerge v15.0.0 ('Duel with the Devil') 64-bit 2018-07-20 02:32:27 / mkvmerge v15.0.0 ('Duel with the Devil') 64-bit 2018-07-20 02:32:27 / UTC 2018-07-17T09:32:31Z
    FromStats_BitRate                        : 1508999
    FromStats_Duration                       : 02:05:40.523000000
    FromStats_FrameCount                     : 706924
    FromStats_StreamSize                     : 1422331088

    Text #1
    ID                                       : 4
    Format                                   : PGS
    Muxing mode                              : zlib
    Codec ID                                 : S_HDMV/PGS
    Codec ID/Info                            : Picture based subtitle format used on BDs/HD-DVDs
    Language                                 : English
    Default                                  : No
    Forced                                   : No
    Statistics Tags Issue                    : mkvmerge v15.0.0 ('Duel with the Devil') 64-bit 2018-07-20 02:32:27 / mkvmerge v15.0.0 ('Duel with the Devil') 64-bit 2018-07-20 02:32:27 / UTC 2018-07-17T09:32:31Z
    FromStats_BitRate                        : 21524
    FromStats_Duration                       : 02:05:13.256000000
    FromStats_FrameCount                     : 1682
    FromStats_StreamSize                     : 20215257

    Text #2
    ID                                       : 5
    Format                                   : PGS
    Muxing mode                              : zlib
    Codec ID                                 : S_HDMV/PGS
    Codec ID/Info                            : Picture based subtitle format used on BDs/HD-DVDs
    Language                                 : Spanish
    Default                                  : No
    Forced                                   : No
    Statistics Tags Issue                    : mkvmerge v15.0.0 ('Duel with the Devil') 64-bit 2018-07-20 02:32:27 / mkvmerge v15.0.0 ('Duel with the Devil') 64-bit 2018-07-20 02:32:27 / UTC 2018-07-17T09:32:31Z
    FromStats_BitRate                        : 21471
    FromStats_Duration                       : 02:04:42.392000000
    FromStats_FrameCount                     : 1792
    FromStats_StreamSize                     : 20082593

    Text #3
    ID                                       : 6
    Format                                   : PGS
    Muxing mode                              : zlib
    Codec ID                                 : S_HDMV/PGS
    Codec ID/Info                            : Picture based subtitle format used on BDs/HD-DVDs
    Title                                    : Forzados
    Language                                 : Spanish
    Default                                  : Yes
    Forced                                   : Yes
    Statistics Tags Issue                    : mkvmerge v15.0.0 ('Duel with the Devil') 64-bit 2018-07-20 02:32:27 / mkvmerge v15.0.0 ('Duel with the Devil') 64-bit 2018-07-20 02:32:27 / UTC 2018-07-17T09:32:31Z
    FromStats_BitRate                        : 43053
    FromStats_Duration                       : 02:05:09.335000000
    FromStats_FrameCount                     : 3238
    FromStats_StreamSize                     : 40413139

    Menu
    00:00:00.000                             : :Chapter 1
    00:00:49.508                             : :Chapter 2
    00:05:59.609                             : :Chapter 3
    00:08:05.986                             : :Chapter 4
    00:12:37.048                             : :Chapter 5
    00:15:15.164                             : :Chapter 6
    00:18:01.289                             : :Chapter 7
    00:20:35.234                             : :Chapter 8
    00:23:16.770                             : :Chapter 9
    00:27:28.814                             : :Chapter 10
    00:32:58.435                             : :Chapter 11
    00:40:01.024                             : :Chapter 12
    00:46:12.436                             : :Chapter 13
    00:48:31.742                             : :Chapter 14
    00:51:06.313                             : :Chapter 15
    00:53:24.034                             : :Chapter 16
    00:57:37.120                             : :Chapter 17
    01:01:14.713                             : :Chapter 18
    01:06:03.626                             : :Chapter 19
    01:10:39.902                             : :Chapter 20
    01:17:02.451                             : :Chapter 21
    01:22:40.706                             : :Chapter 22
    01:25:27.914                             : :Chapter 23
    01:31:05.961                             : :Chapter 24
    01:34:50.268                             : :Chapter 25
    01:36:16.187                             : :Chapter 26
    01:40:37.573                             : :Chapter 27
    01:48:56.155                             : :Chapter 28
    01:54:11.845                             : :Chapter 29
    01:57:53.525                             : :Chapter 30
    01:59:45.553                             : :Chapter 31
    02:03:56.679                             : :Chapter 32

  • Peso: 10.4 GiB

Sinopsis

La misteriosa desaparición de dos submarinos nucleares hace que colaboren los mejores operativos de los servicios secretos británico y soviético: James Bond y la mayor Amasova. Detrás de todo se encuentra el magnate Stromberg, cuya finalidad es la destrucción de la “corrupta” humanidad para fundar una civilización pura bajo el mar.

Ficha técnica

Video trailer de la película

Enlaces de descarga

Rip de Bluray

Descargar James Bond The Spy Who Loved Me (1977) Full 1080p Latino




Aportes de DPeliculasHDmega la pass es:dpeliculashdmega.org Aportes de CinemaniaHD la pass es:cinemaniahdd.com

Películas relacionadas

  • La Monja (2018) Web-DL 1080p Latino

    2018
    La Monja (2018) Web-DL 1080p Latino

    5.0 1h 36m 2018

    Descargar La Monja (2018) Web-DL 1080p Latino, Mega, Google Drive. Cuando una joven monja se suicida...

    Director: Jody Blose

    Género: Misterio

    Actores: Tudor Munteanu

  • El Jefe de la Mafia: Gotti (2018) 1080p Latino

    2018
    El Jefe de la Mafia: Gotti (2018) 1080p Latino

    1.0 1h 50m 2018

    Descargar El Jefe de la Mafia: Gotti (2018) 1080p Latino, Mega, Google Drive. Biopic del famoso mafioso...

    Director: S. B. Weathersby

    Género: Crimen

    Actores: William DeMeo

  • Mision: Imposible 2 (2000) Full 1080p Latino

    2000
    Mision: Imposible 2 (2000) Full 1080p Latino

    3.0 2h 3m 2000

    Descargar Mision: Imposible 2 (2000) Full 1080p Latino, Mega, Google Drive. El agente especial Ethan...

    Director: William H. Burton Jr.

    Género: Acción

    Actores: William Mapother

  • Mision: Imposible 2 (2000) 1080p Latino

    2000
    Mision: Imposible 2 (2000) 1080p Latino

    1.0 2h 3m 2000

    Descargar Mision: Imposible 2 (2000) 1080p Latino, Mega, Google Drive. El agente especial Ethan Hunt...

    Director: William H. Burton Jr.

    Género: Acción

    Actores: William Mapother

  • Mision: Imposible (1996) Full 1080p Latino

    1996
    Mision: Imposible (1996) Full 1080p Latino

    3.7 1h 50m 1996

    Mission: Impossible (1996) Full 1080p Latino, Mega, Google Drive. Ethan Hunt es un superespía capaz...

    Director: Nick Moore

    Género: Acción

    Actores: Ving Rhames

Comentarios 1
  • ocpgaiden - 20 julio, 2018

    Gracias por la espia que me amo, saludos