James Bond The Living Daylights (1987) Full 1080p Latino

602 vistas
1 estrella2 estrellas3 estrellas4 estrellas5 estrellas (Ninguna valoración todavía)
Cargando…

Información de James Bond The Living Daylights (1987) Full 1080p Latino

Datos de la película

  • Calidad: Full 1080p
  • Audio: Español Latino AC3 5.1 BLURAY - Ingles DTS 5.1 BLURAY
  • Subtitulos: Español Latino PGS - Ingles PGS
  • Resolución: 1920x1080p
  • Formato: MKV
  • Codec: H.264
  • Encoder: Dracarys
  • Mediainfo: Clic para Mostrar Datos Ver
  • Format                                   : Matroska
    Format version                           : Version 4 / Version 2
    File size                                : 7.96 GiB
    Duration                                 : 2 h 10 min
    Overall bit rate                         : 8 708 kb/s
    Movie name                               : CinemaniaHDD.net
    Encoded date                             : UTC 2018-07-25 23:30:04 / UTC 2018-07-18T13:42:44Z
    Writing application                      : mkvmerge v15.0.0 ('Duel with the Devil') 64-bit
    Writing library                          : libebml v1.3.5 + libmatroska v1.4.5 / Lavf57.7.2

    Video
    ID                                       : 1
    Format                                   : AVC
    Format/Info                              : Advanced Video Codec
    Format profile                           : High@L4.1
    Format settings                          : CABAC / 4 Ref Frames
    Format settings, CABAC                   : Yes
    Format settings, RefFrames               : 4 frames
    Codec ID                                 : V_MPEG4/ISO/AVC
    Duration                                 : 2 h 10 min
    Bit rate                                 : 6 578 kb/s
    Width                                    : 1 920 pixels
    Height                                   : 1 080 pixels
    Display aspect ratio                     : 16:9
    Frame rate mode                          : Constant
    Frame rate                               : 23.976 (24000/1001) FPS
    Color space                              : YUV
    Chroma subsampling                       : 4:2:0
    Bit depth                                : 8 bits
    Scan type                                : Progressive
    Bits/(Pixel*Frame)                       : 0.132
    Stream size                              : 6.01 GiB (76%)
    Title                                    : James Bond The Living Daylights (1987) Full 1080p Latino
    Writing library                          : x264 core 148 r2708 86b7198
    Encoding settings                        : cabac=1 / ref=4 / deblock=1:0:0 / analyse=0x3:0x133 / me=esa / subme=10 / psy=1 / psy_rd=1.00:0.00 / mixed_ref=1 / me_range=24 / chroma_me=1 / trellis=2 / 8x8dct=1 / cqm=0 / deadzone=21,11 / fast_pskip=1 / chroma_qp_offset=-2 / threads=34 / lookahead_threads=5 / sliced_threads=0 / nr=0 / decimate=1 / interlaced=0 / bluray_compat=0 / constrained_intra=0 / bframes=8 / b_pyramid=2 / b_adapt=2 / b_bias=0 / direct=3 / weightb=1 / open_gop=0 / weightp=2 / keyint=240 / keyint_min=24 / scenecut=40 / intra_refresh=0 / rc_lookahead=60 / rc=crf / mbtree=1 / crf=20.0 / qcomp=0.60 / qpmin=0 / qpmax=69 / qpstep=4 / vbv_maxrate=62500 / vbv_bufsize=78125 / crf_max=0.0 / nal_hrd=none / filler=0 / ip_ratio=1.40 / aq=1:1.00
    Language                                 : English
    Default                                  : Yes
    Forced                                   : No
    Color range                              : Limited
    Color primaries                          : BT.709
    Transfer characteristics                 : BT.709
    Matrix coefficients                      : BT.709
    Statistics Tags Issue                    : mkvmerge v15.0.0 ('Duel with the Devil') 64-bit 2018-07-25 23:30:04 / mkvmerge v15.0.0 ('Duel with the Devil') 64-bit 2018-07-25 23:30:04 / UTC 2018-07-18T13:42:44Z
    FromStats_BitRate                        : 6722518
    FromStats_Duration                       : 02:10:53.262000000
    FromStats_FrameCount                     : 188290
    FromStats_StreamSize                     : 6599212377

    Audio #1
    ID                                       : 2
    Format                                   : AC-3
    Format/Info                              : Audio Coding 3
    Format settings, Endianness              : Big
    Codec ID                                 : A_AC3
    Duration                                 : 2 h 10 min
    Bit rate mode                            : Constant
    Bit rate                                 : 448 kb/s
    Channel(s)                               : 6 channels
    Channel positions                        : Front: L C R, Side: L R, LFE
    Sampling rate                            : 48.0 kHz
    Frame rate                               : 31.250 FPS (1536 SPF)
    Bit depth                                : 16 bits
    Compression mode                         : Lossy
    Stream size                              : 419 MiB (5%)
    Language                                 : Spanish
    Service kind                             : Complete Main
    Default                                  : Yes
    Forced                                   : No
    Statistics Tags Issue                    : mkvmerge v15.0.0 ('Duel with the Devil') 64-bit 2018-07-25 23:30:04 / mkvmerge v15.0.0 ('Duel with the Devil') 64-bit 2018-07-25 23:30:04 / UTC 2018-07-18T13:42:44Z
    FromStats_BitRate                        : 448000
    FromStats_Duration                       : 02:10:53.312000000
    FromStats_FrameCount                     : 245416
    FromStats_StreamSize                     : 439785472

    Audio #2
    ID                                       : 3
    Format                                   : DTS
    Format/Info                              : Digital Theater Systems
    Mode                                     : 16
    Format settings, Endianness              : Big
    Codec ID                                 : A_DTS
    Duration                                 : 2 h 10 min
    Bit rate mode                            : Constant
    Bit rate                                 : 1 509 kb/s
    Channel(s)                               : 6 channels
    Channel positions                        : Front: L C R, Side: L R, LFE
    Sampling rate                            : 48.0 kHz
    Frame rate                               : 93.750 FPS (512 SPF)
    Bit depth                                : 24 bits
    Compression mode                         : Lossy
    Stream size                              : 1.38 GiB (17%)
    Language                                 : English
    Default                                  : No
    Forced                                   : No
    Statistics Tags Issue                    : mkvmerge v15.0.0 ('Duel with the Devil') 64-bit 2018-07-25 23:30:04 / mkvmerge v15.0.0 ('Duel with the Devil') 64-bit 2018-07-25 23:30:04 / UTC 2018-07-18T13:42:44Z
    FromStats_BitRate                        : 1508999
    FromStats_Duration                       : 02:10:53.302000000
    FromStats_FrameCount                     : 736247
    FromStats_StreamSize                     : 1481328964

    Text #1
    ID                                       : 4
    Format                                   : PGS
    Muxing mode                              : zlib
    Codec ID                                 : S_HDMV/PGS
    Codec ID/Info                            : Picture based subtitle format used on BDs/HD-DVDs
    Language                                 : English
    Default                                  : No
    Forced                                   : No
    Statistics Tags Issue                    : mkvmerge v15.0.0 ('Duel with the Devil') 64-bit 2018-07-25 23:30:04 / mkvmerge v15.0.0 ('Duel with the Devil') 64-bit 2018-07-25 23:30:04 / UTC 2018-07-18T13:42:44Z
    FromStats_BitRate                        : 21824
    FromStats_Duration                       : 02:09:57.832000000
    FromStats_FrameCount                     : 1845
    FromStats_StreamSize                     : 21272663

    Text #2
    ID                                       : 5
    Format                                   : PGS
    Muxing mode                              : zlib
    Codec ID                                 : S_HDMV/PGS
    Codec ID/Info                            : Picture based subtitle format used on BDs/HD-DVDs
    Language                                 : Spanish
    Default                                  : No
    Forced                                   : No
    Statistics Tags Issue                    : mkvmerge v15.0.0 ('Duel with the Devil') 64-bit 2018-07-25 23:30:04 / mkvmerge v15.0.0 ('Duel with the Devil') 64-bit 2018-07-25 23:30:04 / UTC 2018-07-18T13:42:44Z
    FromStats_BitRate                        : 20631
    FromStats_Duration                       : 02:09:58.082000000
    FromStats_FrameCount                     : 1845
    FromStats_StreamSize                     : 20111080

    Text #3
    ID                                       : 6
    Format                                   : PGS
    Muxing mode                              : zlib
    Codec ID                                 : S_HDMV/PGS
    Codec ID/Info                            : Picture based subtitle format used on BDs/HD-DVDs
    Title                                    : Forzados
    Language                                 : Spanish
    Default                                  : Yes
    Forced                                   : Yes
    Statistics Tags Issue                    : mkvmerge v15.0.0 ('Duel with the Devil') 64-bit 2018-07-25 23:30:04 / mkvmerge v15.0.0 ('Duel with the Devil') 64-bit 2018-07-25 23:30:04 / UTC 2018-07-18T13:42:44Z
    FromStats_BitRate                        : 51973
    FromStats_Duration                       : 02:10:37.163000000
    FromStats_FrameCount                     : 3394
    FromStats_StreamSize                     : 50915931

    Menu
    00:00:00.000                             : :Chapter 1
    00:07:32.744                             : :Chapter 2
    00:10:18.743                             : :Chapter 3
    00:14:02.216                             : :Chapter 4
    00:17:02.647                             : :Chapter 5
    00:22:20.256                             : :Chapter 6
    00:28:12.941                             : :Chapter 7
    00:31:43.151                             : :Chapter 8
    00:35:58.323                             : :Chapter 9
    00:39:38.209                             : :Chapter 10
    00:42:27.587                             : :Chapter 11
    00:44:54.150                             : :Chapter 12
    00:50:40.955                             : :Chapter 13
    00:57:12.054                             : :Chapter 14
    00:59:02.247                             : :Chapter 15
    01:02:31.164                             : :Chapter 16
    01:07:36.219                             : :Chapter 17
    01:12:42.358                             : :Chapter 18
    01:17:39.655                             : :Chapter 19
    01:20:26.822                             : :Chapter 20
    01:24:18.345                             : :Chapter 21
    01:28:53.703                             : :Chapter 22
    01:33:16.174                             : :Chapter 23
    01:37:04.068                             : :Chapter 24
    01:42:21.177                             : :Chapter 25
    01:49:25.267                             : :Chapter 26
    01:52:04.468                             : :Chapter 27
    01:56:52.631                             : :Chapter 28
    01:58:35.609                             : :Chapter 29
    02:00:45.780                             : :Chapter 30
    02:05:31.733                             : :Chapter 31
    02:08:13.394                             : :Chapter 32

  • Peso: 7.96 GiB

Sinopsis

El agente 007 se enfrenta a una nueva misión en Bratislava: ha sido designado expresamente por el general Koskov para que lo proteja al desertar de la KGB. Tras escapar hacia Austria, Koskov se reúne con la organización de Bond en Londres para ponerlos al corriente de los planes de general Puskin, que tiene la intención de asesinar a una serie de agentes británicos. Bond no cree la historia de Koskov, más aún cuando éste es capturado de nuevo por la KGB. Para dar con el paradero de Koskov, Bond regresa a Bratislav, donde encuentra a la novia del general, que también corre peligro. La ayuda a escapar, y descubre que Koskov se halla en Tanger junto al general Whitaker, traficante de armas.

Ficha técnica

Video trailer de la película

Enlaces de descarga

Rip de Bluray

Descargar James Bond The Living Daylights (1987) Full 1080p Latino




Aportes de DPeliculasHDmega la pass es:dpeliculashdmega.org Aportes de CinemaniaHD la pass es:cinemaniahdd.com

Películas relacionadas

  • Cam (2018) NF 1080p Latino

    2018
    Cam (2018) NF 1080p Latino

    0.0 1h 34m 2018

    Alice es una camgirl con un código inamovible, que le permite mantener una cierta distancia con los...

    Director: Rachel Penner

    Género: Suspense

    Actores: Samantha Robinson

  • El Justiciero 2 (2018) Full 1080p Latino

    2018
    El Justiciero 2 (2018) Full 1080p Latino

    5.0 2h 0m 2018

    Descargar El Justiciero 2 (2018) Full 1080p Latino, Mega, Google Drive. Robert McCall (Denzel Washington)...

    Director: Donald Sparks

    Género: Acción

    Actores: Wesley Pereira

Comentarios 1
  • ocpgaiden - 26 julio, 2018

    gracias por la pelicula, saludos