James Bond Quantum Of Solace (2008) Full 1080p Latino

996 vistas
1 estrella2 estrellas3 estrellas4 estrellas5 estrellas (4 votos, promedio: 3,00 de 5)
Cargando…

Información de James Bond Quantum Of Solace (2008) Full 1080p Latino

Datos de la película

  • Calidad:
  • Audio: Español Latino AC3 5.1 BLURAY - Ingles DTS 5.1 BLURAY
  • Subtitulos: Español Latino PGS - Ingles PGS
  • Resolución: 1920x1080p
  • Formato: MKV
  • Codec: H.264
  • Encoder: Dracarys
  • Mediainfo: Clic para Mostrar Datos Ver
  • Format                                   : Matroska
    Format version                           : Version 4 / Version 2
    File size                                : 9.26 GiB
    Duration                                 : 1 h 46 min
    Overall bit rate                         : 12.5 Mb/s
    Movie name                               : CinemaniaHDD.net
    Encoded date                             : UTC 2018-08-31 03:33:17 / UTC 2018-07-20T10:47:05Z
    Writing application                      : mkvmerge v15.0.0 ('Duel with the Devil') 64-bit
    Writing library                          : libebml v1.3.5 + libmatroska v1.4.5 / Lavf57.7.2

    Video
    ID                                       : 1
    Format                                   : AVC
    Format/Info                              : Advanced Video Codec
    Format profile                           : High@L4.1
    Format settings                          : CABAC / 4 Ref Frames
    Format settings, CABAC                   : Yes
    Format settings, RefFrames               : 4 frames
    Codec ID                                 : V_MPEG4/ISO/AVC
    Duration                                 : 1 h 46 min
    Bit rate                                 : 10.3 Mb/s
    Width                                    : 1 920 pixels
    Height                                   : 1 080 pixels
    Display aspect ratio                     : 16:9
    Frame rate mode                          : Constant
    Frame rate                               : 23.976 (24000/1001) FPS
    Color space                              : YUV
    Chroma subsampling                       : 4:2:0
    Bit depth                                : 8 bits
    Scan type                                : Progressive
    Bits/(Pixel*Frame)                       : 0.207
    Stream size                              : 7.62 GiB (82%)
    Title                                    : [21] James Bond Quantum Of Solace (2008) Full 1080p Latino
    Writing library                          : x264 core 148 r2708 86b7198
    Encoding settings                        : cabac=1 / ref=4 / deblock=1:0:0 / analyse=0x3:0x133 / me=esa / subme=10 / psy=1 / psy_rd=1.00:0.00 / mixed_ref=1 / me_range=24 / chroma_me=1 / trellis=2 / 8x8dct=1 / cqm=0 / deadzone=21,11 / fast_pskip=1 / chroma_qp_offset=-2 / threads=34 / lookahead_threads=5 / sliced_threads=0 / nr=0 / decimate=1 / interlaced=0 / bluray_compat=0 / constrained_intra=0 / bframes=8 / b_pyramid=2 / b_adapt=2 / b_bias=0 / direct=3 / weightb=1 / open_gop=0 / weightp=2 / keyint=240 / keyint_min=24 / scenecut=40 / intra_refresh=0 / rc_lookahead=60 / rc=crf / mbtree=1 / crf=20.0 / qcomp=0.60 / qpmin=0 / qpmax=69 / qpstep=4 / vbv_maxrate=62500 / vbv_bufsize=78125 / crf_max=0.0 / nal_hrd=none / filler=0 / ip_ratio=1.40 / aq=1:1.00
    Language                                 : English
    Default                                  : Yes
    Forced                                   : No
    Color range                              : Limited
    Color primaries                          : BT.709
    Transfer characteristics                 : BT.709
    Matrix coefficients                      : BT.709
    Statistics Tags Issue                    : mkvmerge v15.0.0 ('Duel with the Devil') 64-bit 2018-08-31 03:33:17 / mkvmerge v15.0.0 ('Duel with the Devil') 64-bit 2018-08-31 03:33:17 / UTC 2018-07-20T10:47:05Z
    FromStats_BitRate                        : 10488107
    FromStats_Duration                       : 01:46:14.327000000
    FromStats_FrameCount                     : 152831
    FromStats_StreamSize                     : 8356828212

    Audio #1
    ID                                       : 2
    Format                                   : AC-3
    Format/Info                              : Audio Coding 3
    Format settings, Endianness              : Big
    Codec ID                                 : A_AC3
    Duration                                 : 1 h 46 min
    Bit rate mode                            : Constant
    Bit rate                                 : 448 kb/s
    Channel(s)                               : 6 channels
    Channel positions                        : Front: L C R, Side: L R, LFE
    Sampling rate                            : 48.0 kHz
    Frame rate                               : 31.250 FPS (1536 SPF)
    Bit depth                                : 16 bits
    Compression mode                         : Lossy
    Stream size                              : 340 MiB (4%)
    Language                                 : Spanish
    Service kind                             : Complete Main
    Default                                  : Yes
    Forced                                   : No
    Statistics Tags Issue                    : mkvmerge v15.0.0 ('Duel with the Devil') 64-bit 2018-08-31 03:33:17 / mkvmerge v15.0.0 ('Duel with the Devil') 64-bit 2018-08-31 03:33:17 / UTC 2018-07-20T10:47:05Z
    FromStats_BitRate                        : 448000
    FromStats_Duration                       : 01:46:14.368000000
    FromStats_FrameCount                     : 199199
    FromStats_StreamSize                     : 356964608

    Audio #2
    ID                                       : 3
    Format                                   : DTS
    Format/Info                              : Digital Theater Systems
    Mode                                     : 16
    Format settings, Endianness              : Big
    Codec ID                                 : A_DTS
    Duration                                 : 1 h 46 min
    Bit rate mode                            : Constant
    Bit rate                                 : 1 509 kb/s
    Channel(s)                               : 6 channels
    Channel positions                        : Front: L C R, Side: L R, LFE
    Sampling rate                            : 48.0 kHz
    Frame rate                               : 93.750 FPS (512 SPF)
    Bit depth                                : 24 bits
    Compression mode                         : Lossy
    Stream size                              : 1.12 GiB (12%)
    Language                                 : English
    Default                                  : No
    Forced                                   : No
    Statistics Tags Issue                    : mkvmerge v15.0.0 ('Duel with the Devil') 64-bit 2018-08-31 03:33:17 / mkvmerge v15.0.0 ('Duel with the Devil') 64-bit 2018-08-31 03:33:17 / UTC 2018-07-20T10:47:05Z
    FromStats_BitRate                        : 1508999
    FromStats_Duration                       : 01:46:14.358000000
    FromStats_FrameCount                     : 597596
    FromStats_StreamSize                     : 1202363152

    Text #1
    ID                                       : 4
    Format                                   : PGS
    Muxing mode                              : zlib
    Codec ID                                 : S_HDMV/PGS
    Codec ID/Info                            : Picture based subtitle format used on BDs/HD-DVDs
    Title                                    : Forzados
    Language                                 : Spanish
    Default                                  : Yes
    Forced                                   : Yes
    Statistics Tags Issue                    : mkvmerge v15.0.0 ('Duel with the Devil') 64-bit 2018-08-31 03:33:17 / mkvmerge v15.0.0 ('Duel with the Devil') 64-bit 2018-08-31 03:33:17 / UTC 2018-07-20T10:47:05Z
    FromStats_BitRate                        : 832
    FromStats_Duration                       : 01:43:57.404000000
    FromStats_FrameCount                     : 44
    FromStats_StreamSize                     : 649187

    Text #2
    ID                                       : 5
    Format                                   : PGS
    Muxing mode                              : zlib
    Codec ID                                 : S_HDMV/PGS
    Codec ID/Info                            : Picture based subtitle format used on BDs/HD-DVDs
    Language                                 : Spanish
    Default                                  : No
    Forced                                   : No
    Statistics Tags Issue                    : mkvmerge v15.0.0 ('Duel with the Devil') 64-bit 2018-08-31 03:33:17 / mkvmerge v15.0.0 ('Duel with the Devil') 64-bit 2018-08-31 03:33:17 / UTC 2018-07-20T10:47:05Z
    FromStats_BitRate                        : 38641
    FromStats_Duration                       : 01:43:57.404000000
    FromStats_FrameCount                     : 1918
    FromStats_StreamSize                     : 30128206

    Text #3
    ID                                       : 6
    Format                                   : PGS
    Muxing mode                              : zlib
    Codec ID                                 : S_HDMV/PGS
    Codec ID/Info                            : Picture based subtitle format used on BDs/HD-DVDs
    Language                                 : English
    Default                                  : No
    Forced                                   : No
    Statistics Tags Issue                    : mkvmerge v15.0.0 ('Duel with the Devil') 64-bit 2018-08-31 03:33:17 / mkvmerge v15.0.0 ('Duel with the Devil') 64-bit 2018-08-31 03:33:17 / UTC 2018-07-20T10:47:05Z
    FromStats_BitRate                        : 33799
    FromStats_Duration                       : 01:40:42.328000000
    FromStats_FrameCount                     : 2377
    FromStats_StreamSize                     : 25528461

    Menu
    00:00:00.000                             : :Chapter 1
    00:04:10.125                             : :Chapter 2
    00:07:27.530                             : :Chapter 3
    00:10:20.537                             : :Chapter 4
    00:15:16.833                             : :Chapter 5
    00:17:47.650                             : :Chapter 6
    00:20:24.306                             : :Chapter 7
    00:22:51.370                             : :Chapter 8
    00:26:28.420                             : :Chapter 9
    00:29:06.370                             : :Chapter 10
    00:33:16.912                             : :Chapter 11
    00:35:48.104                             : :Chapter 12
    00:39:02.131                             : :Chapter 13
    00:44:19.157                             : :Chapter 14
    00:47:21.797                             : :Chapter 15
    00:52:30.898                             : :Chapter 16
    00:56:29.011                             : :Chapter 17
    01:01:17.174                             : :Chapter 18
    01:04:51.012                             : :Chapter 19
    01:11:04.802                             : :Chapter 20
    01:12:34.433                             : :Chapter 21
    01:17:16.423                             : :Chapter 22
    01:21:05.694                             : :Chapter 23
    01:24:17.719                             : :Chapter 24
    01:29:19.938                             : :Chapter 25
    01:36:15.520                             : :Chapter 26
    01:37:59.248                             : :Chapter 27
    01:41:39.135                             : :Chapter 28

  • Peso: 9.26 GiB

Sinopsis

Traicionado por Vesper, la mujer a la que amaba, 007 se plantea su nueva misión como algo personal. Durante su investigación, Bond y M interrogan a Mr. White, que les revela que la organización que chantajeó a Vesper es mucho más compleja y peligrosa de lo que imaginan. El servicio de inteligencia forense vincula a un traidor del Mi6 con una cuenta bancaria en Haití, donde Bond conoce a la bella pero combativa Camille, una mujer que tiene sus propios motivos para vengarse. Gracias a Camille, Bond descubre la existencia de Dominic Greene, despiadado hombre de negocios y miembro importante de la misteriosa organización.

Ficha técnica

Video trailer de la película

Enlaces de descarga

Rip de Bluray

Descargar James Bond Quantum Of Solace (2008) Full 1080p Latino




Aportes de DPeliculasHDmega la pass es:dpeliculashdmega.org Aportes de CinemaniaHD la pass es:cinemaniahdd.com

Películas relacionadas

  • Godzilla (2014) 1080p Latino

    2014
    Godzilla (2014) 1080p Latino

    0.0 2h 3m 2014

    Descargar Godzilla (2014) 1080p Latino, Mega, Google Drive, Torrent. Gareth Edwards dirige este "reboot",...

    Director: Jessica Clothier

    Género: Acción

    Actores: Yuki Morita

  • Godzilla (2014) Full 1080p Latino

    2014
    Godzilla (2014) Full 1080p Latino

    4.2 2h 3m 2014

    Descargar Godzilla (2014) Full 1080p Latino, Mega, Google Drive, Torrent. Gareth Edwards dirige este...

    Director: Jessica Clothier

    Género: Acción

    Actores: Yuki Morita

  • Un pequeño favor (2018) Full 1080p Latino

    2018
    Un pequeño favor (2018) Full 1080p Latino

    5.0 1h 57m 2018

    Descargar Un pequeño favor (2018) Full 1080p Latino, Mega, Google Drive, Torrent. Stephanie es una joven...

    Director: Paul Feig

    Género: Crimen

    Actores: Zach Smadu

Comentarios 1
  • ocpgaiden - 01 septiembre, 2018

    gracias por 007 Quantum of solace, saludos