James Bond On Her Majesty’s Secret Service (1969) Full 1080p Latino

397 vistas
1 estrella2 estrellas3 estrellas4 estrellas5 estrellas (Ninguna valoración todavía)
Cargando…

Información de James Bond On Her Majesty’s Secret Service (1969) Full 1080p Latino

Datos de la película

  • Calidad: Full 1080p
  • Audio: Español Latino AC3 5.1 BLURAY - Ingles DTS 5.1 BLURAY
  • Subtitulos: Español Latino PGS - Ingles PGS
  • Resolución: 1920x1080p
  • Formato: MKV
  • Codec: H.264
  • Encoder: Dracarys
  • Mediainfo: Clic para Mostrar Datos Ver
  • Format                                   : Matroska
    Format version                           : Version 4 / Version 2
    File size                                : 8.74 GiB
    Duration                                 : 2 h 22 min
    Overall bit rate                         : 8 794 kb/s
    Movie name                               : CinemaniaHDD.net
    Encoded date                             : UTC 2018-07-19 23:50:37 / UTC 2018-07-16T04:25:31Z
    Writing application                      : mkvmerge v15.0.0 ('Duel with the Devil') 64-bit
    Writing library                          : libebml v1.3.5 + libmatroska v1.4.5 / Lavf57.7.2

    Video
    ID                                       : 1
    Format                                   : AVC
    Format/Info                              : Advanced Video Codec
    Format profile                           : High@L4.1
    Format settings                          : CABAC / 4 Ref Frames
    Format settings, CABAC                   : Yes
    Format settings, RefFrames               : 4 frames
    Codec ID                                 : V_MPEG4/ISO/AVC
    Duration                                 : 2 h 22 min
    Bit rate                                 : 6 662 kb/s
    Width                                    : 1 920 pixels
    Height                                   : 1 080 pixels
    Display aspect ratio                     : 16:9
    Frame rate mode                          : Constant
    Frame rate                               : 23.976 (24000/1001) FPS
    Color space                              : YUV
    Chroma subsampling                       : 4:2:0
    Bit depth                                : 8 bits
    Scan type                                : Progressive
    Bits/(Pixel*Frame)                       : 0.134
    Stream size                              : 6.62 GiB (76%)
    Title                                    : James Bond On Her Majesty's Secret Service (1969) Full 1080p Latino
    Writing library                          : x264 core 148 r2708 86b7198
    Encoding settings                        : cabac=1 / ref=4 / deblock=1:0:0 / analyse=0x3:0x133 / me=esa / subme=10 / psy=1 / psy_rd=1.00:0.00 / mixed_ref=1 / me_range=24 / chroma_me=1 / trellis=2 / 8x8dct=1 / cqm=0 / deadzone=21,11 / fast_pskip=1 / chroma_qp_offset=-2 / threads=34 / lookahead_threads=5 / sliced_threads=0 / nr=0 / decimate=1 / interlaced=0 / bluray_compat=0 / constrained_intra=0 / bframes=8 / b_pyramid=2 / b_adapt=2 / b_bias=0 / direct=3 / weightb=1 / open_gop=0 / weightp=2 / keyint=240 / keyint_min=24 / scenecut=40 / intra_refresh=0 / rc_lookahead=60 / rc=crf / mbtree=1 / crf=20.0 / qcomp=0.60 / qpmin=0 / qpmax=69 / qpstep=4 / vbv_maxrate=62500 / vbv_bufsize=78125 / crf_max=0.0 / nal_hrd=none / filler=0 / ip_ratio=1.40 / aq=1:1.00
    Language                                 : English
    Default                                  : Yes
    Forced                                   : No
    Color range                              : Limited
    Color primaries                          : BT.709
    Transfer characteristics                 : BT.709
    Matrix coefficients                      : BT.709
    Statistics Tags Issue                    : mkvmerge v15.0.0 ('Duel with the Devil') 64-bit 2018-07-19 23:50:37 / mkvmerge v15.0.0 ('Duel with the Devil') 64-bit 2018-07-19 23:50:37 / UTC 2018-07-16T04:25:31Z
    FromStats_BitRate                        : 6802598
    FromStats_Duration                       : 02:22:18.530000000
    FromStats_FrameCount                     : 204720
    FromStats_StreamSize                     : 7260523401

    Audio #1
    ID                                       : 2
    Format                                   : AC-3
    Format/Info                              : Audio Coding 3
    Format settings, Endianness              : Big
    Codec ID                                 : A_AC3
    Duration                                 : 2 h 22 min
    Bit rate mode                            : Constant
    Bit rate                                 : 448 kb/s
    Channel(s)                               : 6 channels
    Channel positions                        : Front: L C R, Side: L R, LFE
    Sampling rate                            : 48.0 kHz
    Frame rate                               : 31.250 FPS (1536 SPF)
    Bit depth                                : 16 bits
    Compression mode                         : Lossy
    Stream size                              : 456 MiB (5%)
    Language                                 : Spanish
    Service kind                             : Complete Main
    Default                                  : Yes
    Forced                                   : No
    Statistics Tags Issue                    : mkvmerge v15.0.0 ('Duel with the Devil') 64-bit 2018-07-19 23:50:37 / mkvmerge v15.0.0 ('Duel with the Devil') 64-bit 2018-07-19 23:50:37 / UTC 2018-07-16T04:25:31Z
    FromStats_BitRate                        : 448000
    FromStats_Duration                       : 02:22:18.560000000
    FromStats_FrameCount                     : 266830
    FromStats_StreamSize                     : 478159360

    Audio #2
    ID                                       : 3
    Format                                   : DTS
    Format/Info                              : Digital Theater Systems
    Mode                                     : 16
    Format settings, Endianness              : Big
    Codec ID                                 : A_DTS
    Duration                                 : 2 h 22 min
    Bit rate mode                            : Constant
    Bit rate                                 : 1 509 kb/s
    Channel(s)                               : 6 channels
    Channel positions                        : Front: L C R, Side: L R, LFE
    Sampling rate                            : 48.0 kHz
    Frame rate                               : 93.750 FPS (512 SPF)
    Bit depth                                : 24 bits
    Compression mode                         : Lossy
    Stream size                              : 1.50 GiB (17%)
    Language                                 : English
    Default                                  : No
    Forced                                   : No
    Statistics Tags Issue                    : mkvmerge v15.0.0 ('Duel with the Devil') 64-bit 2018-07-19 23:50:37 / mkvmerge v15.0.0 ('Duel with the Devil') 64-bit 2018-07-19 23:50:37 / UTC 2018-07-16T04:25:31Z
    FromStats_BitRate                        : 1509000
    FromStats_Duration                       : 02:22:18.528000000
    FromStats_FrameCount                     : 800487
    FromStats_StreamSize                     : 1610579844

    Text #1
    ID                                       : 4
    Format                                   : PGS
    Muxing mode                              : zlib
    Codec ID                                 : S_HDMV/PGS
    Codec ID/Info                            : Picture based subtitle format used on BDs/HD-DVDs
    Language                                 : English
    Default                                  : No
    Forced                                   : No
    Statistics Tags Issue                    : mkvmerge v15.0.0 ('Duel with the Devil') 64-bit 2018-07-19 23:50:37 / mkvmerge v15.0.0 ('Duel with the Devil') 64-bit 2018-07-19 23:50:37 / UTC 2018-07-16T04:25:31Z
    FromStats_BitRate                        : 28339
    FromStats_Duration                       : 02:21:52.963000000
    FromStats_FrameCount                     : 2622
    FromStats_StreamSize                     : 30156958

    Text #2
    ID                                       : 5
    Format                                   : PGS
    Muxing mode                              : zlib
    Codec ID                                 : S_HDMV/PGS
    Codec ID/Info                            : Picture based subtitle format used on BDs/HD-DVDs
    Language                                 : Spanish
    Default                                  : No
    Forced                                   : No
    Statistics Tags Issue                    : mkvmerge v15.0.0 ('Duel with the Devil') 64-bit 2018-07-19 23:50:37 / mkvmerge v15.0.0 ('Duel with the Devil') 64-bit 2018-07-19 23:50:37 / UTC 2018-07-16T04:25:31Z
    FromStats_BitRate                        : 25466
    FromStats_Duration                       : 02:21:28.731000000
    FromStats_FrameCount                     : 2233
    FromStats_StreamSize                     : 27022675

    Text #3
    ID                                       : 6
    Format                                   : PGS
    Muxing mode                              : zlib
    Codec ID                                 : S_HDMV/PGS
    Codec ID/Info                            : Picture based subtitle format used on BDs/HD-DVDs
    Title                                    : Forzados
    Language                                 : Spanish
    Default                                  : Yes
    Forced                                   : Yes
    Statistics Tags Issue                    : mkvmerge v15.0.0 ('Duel with the Devil') 64-bit 2018-07-19 23:50:37 / mkvmerge v15.0.0 ('Duel with the Devil') 64-bit 2018-07-19 23:50:37 / UTC 2018-07-16T04:25:31Z
    FromStats_BitRate                        : 58440
    FromStats_Duration                       : 02:22:06.226000000
    FromStats_FrameCount                     : 4622
    FromStats_StreamSize                     : 62284176

    Menu
    00:00:00.000                             : :Chapter 1
    00:01:28.255                             : :Chapter 2
    00:06:56.833                             : :Chapter 3
    00:09:28.443                             : :Chapter 4
    00:14:07.305                             : :Chapter 5
    00:15:43.443                             : :Chapter 6
    00:19:43.933                             : :Chapter 7
    00:26:47.106                             : :Chapter 8
    00:30:36.251                             : :Chapter 9
    00:34:59.014                             : :Chapter 10
    00:37:13.314                             : :Chapter 11
    00:43:52.130                             : :Chapter 12
    00:47:43.027                             : :Chapter 13
    00:54:49.870                             : :Chapter 14
    00:57:09.217                             : :Chapter 15
    01:02:37.254                             : :Chapter 16
    01:06:04.669                             : :Chapter 17
    01:13:21.063                             : :Chapter 18
    01:18:08.058                             : :Chapter 19
    01:22:19.184                             : :Chapter 20
    01:29:14.933                             : :Chapter 21
    01:31:36.282                             : :Chapter 22
    01:38:32.198                             : :Chapter 23
    01:44:17.668                             : :Chapter 24
    01:48:26.625                             : :Chapter 25
    01:53:53.035                             : :Chapter 26
    01:58:39.321                             : :Chapter 27
    02:00:46.906                             : :Chapter 28
    02:05:41.868                             : :Chapter 29
    02:09:09.909                             : :Chapter 30
    02:11:52.405                             : :Chapter 31
    02:15:41.759                             : :Chapter 32

  • Peso: 8.74 GiB

Sinopsis

Tras la marcha temporal de Connery, el actor australiano George Lazenby toma el relevo en esta nueva aventura del agente británico 007, que en esta ocasión se asocia a un mafioso -con cuya sensual hija Tracy Di Vicenzo (Diana Rigg) se llega a casar-, para unir sus fuerzas en la lucha contra la malvada organización Spectra. Ambientada en los alpes suizos, el malvado Stavro Blofeld -Savalas- amenaza al mundo entero con un malvado plan: desarrollar y lanzar una peligrosa bacteria que podría acabar con millones de personal en todo el planeta. La ausencia del actor escocés y el poco carisma de Lazenby hicieron de esta entrega uno de sus mayores fracasos comerciales, pero en años posteriores no han faltado los defensores que la reivindican como una de las más interesantes de toda la saga.

Ficha técnica

Video trailer de la película

Enlaces de descarga

Rip de Bluray

Descargar James Bond On Her Majesty’s Secret Service (1969) Full 1080p Latino




Aportes de DPeliculasHDmega la pass es:dpeliculashdmega.org Aportes de CinemaniaHD la pass es:cinemaniahdd.com

Películas relacionadas

  • El Justiciero 2 (2018) 1080p Latino

    2018
    El Justiciero 2 (2018) 1080p Latino

    1.0 2h 0m 2018

    Descargar El Justiciero 2 (2018) 1080p Latino, Mega, Google Drive. Robert McCall (Denzel Washington)...

    Director: Donald Sparks

    Género: Acción

    Actores: Wesley Pereira

  • Kin (2018) Full 1080p Latino

    2018
    Kin (2018) Full 1080p Latino

    5.0 1h 42m 2018

    Perseguidos por un criminal vengativo (James Franco) y una banda de soldados sobrenaturales,​ un exconvicto...

    Director: Josh Baker

    Género: Acción

    Actores: Zoë Kravitz

  • Los increíbles 2 (2018) Full 1080p Latino

    2018
    Los increíbles 2 (2018) Full 1080p Latino

    5.0 1h 58m 2018

    Helen tiene que liderar una campaña para que los superhéroes regresen, mientras Bob vive su vida "normal"...

    Director: Seong-Young Kim

    Género: Acción

    Actores: Usher

  • Searching (2018) WEBDL 1080p Subtitulado

    2018
    Searching (2018) WEBDL 1080p Subtitulado

    0.0 1h 41m 2018

    Después de que la hija de 16 años de David Kim desaparece, se abre una investigación policial. Pero...

    Director: Aneesh Chaganty

    Género: Drama

    Actores: Thomas Barbusca

Comentarios 0