James Bond From Russia with Love (1963) Full 1080p Latino

485 vistas
1 estrella2 estrellas3 estrellas4 estrellas5 estrellas (Ninguna valoración todavía)
Cargando…

Información de James Bond From Russia with Love (1963) Full 1080p Latino

Datos de la película

  • Calidad: Full 1080p
  • Audio: Español Latino AC3 5.1 BLURAY - Ingles DTS 5.1 BLURAY
  • Subtitulos: Español Latino PGS - Ingles PGS
  • Resolución: 1920x1080p
  • Formato: MKV
  • Codec: H.264
  • Encoder: Dracarys
  • Mediainfo: Clic para Mostrar Datos Ver
  • Format                                   : Matroska
    Format version                           : Version 4 / Version 2
    File size                                : 12.2 GiB
    Duration                                 : 1 h 55 min
    Overall bit rate                         : 15.1 Mb/s
    Movie name                               : CinemaniaHDD.net
    Encoded date                             : UTC 2018-07-19 21:57:16 / UTC 2018-07-14T18:01:13Z
    Writing application                      : mkvmerge v15.0.0 ('Duel with the Devil') 64-bit
    Writing library                          : libebml v1.3.5 + libmatroska v1.4.5 / Lavf57.7.2

    Video
    ID                                       : 1
    Format                                   : AVC
    Format/Info                              : Advanced Video Codec
    Format profile                           : High@L4.1
    Format settings                          : CABAC / 4 Ref Frames
    Format settings, CABAC                   : Yes
    Format settings, RefFrames               : 4 frames
    Codec ID                                 : V_MPEG4/ISO/AVC
    Duration                                 : 1 h 55 min
    Bit rate                                 : 12.9 Mb/s
    Width                                    : 1 920 pixels
    Height                                   : 1 080 pixels
    Display aspect ratio                     : 16:9
    Frame rate mode                          : Constant
    Frame rate                               : 23.976 (24000/1001) FPS
    Color space                              : YUV
    Chroma subsampling                       : 4:2:0
    Bit depth                                : 8 bits
    Scan type                                : Progressive
    Bits/(Pixel*Frame)                       : 0.259
    Stream size                              : 10.4 GiB (85%)
    Title                                    : James Bond From Russia with Love (1963) Full 1080p Latino
    Writing library                          : x264 core 148 r2708 86b7198
    Encoding settings                        : cabac=1 / ref=4 / deblock=1:0:0 / analyse=0x3:0x133 / me=esa / subme=10 / psy=1 / psy_rd=1.00:0.00 / mixed_ref=1 / me_range=24 / chroma_me=1 / trellis=2 / 8x8dct=1 / cqm=0 / deadzone=21,11 / fast_pskip=1 / chroma_qp_offset=-2 / threads=34 / lookahead_threads=5 / sliced_threads=0 / nr=0 / decimate=1 / interlaced=0 / bluray_compat=0 / constrained_intra=0 / bframes=8 / b_pyramid=2 / b_adapt=2 / b_bias=0 / direct=3 / weightb=1 / open_gop=0 / weightp=2 / keyint=240 / keyint_min=24 / scenecut=40 / intra_refresh=0 / rc_lookahead=60 / rc=crf / mbtree=1 / crf=20.0 / qcomp=0.60 / qpmin=0 / qpmax=69 / qpstep=4 / vbv_maxrate=62500 / vbv_bufsize=78125 / crf_max=0.0 / nal_hrd=none / filler=0 / ip_ratio=1.40 / aq=1:1.00
    Language                                 : English
    Default                                  : Yes
    Forced                                   : No
    Color range                              : Limited
    Color primaries                          : BT.709
    Transfer characteristics                 : BT.709
    Matrix coefficients                      : BT.709
    Statistics Tags Issue                    : mkvmerge v15.0.0 ('Duel with the Devil') 64-bit 2018-07-19 21:57:16 / mkvmerge v15.0.0 ('Duel with the Devil') 64-bit 2018-07-19 21:57:16 / UTC 2018-07-14T18:01:13Z
    FromStats_BitRate                        : 13170771
    FromStats_Duration                       : 01:55:12.322000000
    FromStats_FrameCount                     : 165730
    FromStats_StreamSize                     : 11380076389

    Audio #1
    ID                                       : 2
    Format                                   : AC-3
    Format/Info                              : Audio Coding 3
    Format settings, Endianness              : Big
    Codec ID                                 : A_AC3
    Duration                                 : 1 h 55 min
    Bit rate mode                            : Constant
    Bit rate                                 : 448 kb/s
    Channel(s)                               : 6 channels
    Channel positions                        : Front: L C R, Side: L R, LFE
    Sampling rate                            : 48.0 kHz
    Frame rate                               : 31.250 FPS (1536 SPF)
    Bit depth                                : 16 bits
    Compression mode                         : Lossy
    Stream size                              : 369 MiB (3%)
    Language                                 : Spanish
    Service kind                             : Complete Main
    Default                                  : Yes
    Forced                                   : No
    Statistics Tags Issue                    : mkvmerge v15.0.0 ('Duel with the Devil') 64-bit 2018-07-19 21:57:16 / mkvmerge v15.0.0 ('Duel with the Devil') 64-bit 2018-07-19 21:57:16 / UTC 2018-07-14T18:01:13Z
    FromStats_BitRate                        : 448000
    FromStats_Duration                       : 01:55:12.384000000
    FromStats_FrameCount                     : 216012
    FromStats_StreamSize                     : 387093504

    Audio #2
    ID                                       : 3
    Format                                   : DTS
    Format/Info                              : Digital Theater Systems
    Mode                                     : 16
    Format settings, Endianness              : Big
    Codec ID                                 : A_DTS
    Duration                                 : 1 h 55 min
    Bit rate mode                            : Constant
    Bit rate                                 : 1 509 kb/s
    Channel(s)                               : 6 channels
    Channel positions                        : Front: L C R, Side: L R, LFE
    Sampling rate                            : 48.0 kHz
    Frame rate                               : 93.750 FPS (512 SPF)
    Bit depth                                : 24 bits
    Compression mode                         : Lossy
    Stream size                              : 1.21 GiB (10%)
    Language                                 : English
    Default                                  : No
    Forced                                   : No
    Statistics Tags Issue                    : mkvmerge v15.0.0 ('Duel with the Devil') 64-bit 2018-07-19 21:57:16 / mkvmerge v15.0.0 ('Duel with the Devil') 64-bit 2018-07-19 21:57:16 / UTC 2018-07-14T18:01:13Z
    FromStats_BitRate                        : 1508999
    FromStats_Duration                       : 01:55:12.363000000
    FromStats_FrameCount                     : 648034
    FromStats_StreamSize                     : 1303844408

    Text #1
    ID                                       : 4
    Format                                   : PGS
    Muxing mode                              : zlib
    Codec ID                                 : S_HDMV/PGS
    Codec ID/Info                            : Picture based subtitle format used on BDs/HD-DVDs
    Language                                 : English
    Default                                  : No
    Forced                                   : No
    Statistics Tags Issue                    : mkvmerge v15.0.0 ('Duel with the Devil') 64-bit 2018-07-19 21:57:16 / mkvmerge v15.0.0 ('Duel with the Devil') 64-bit 2018-07-19 21:57:16 / UTC 2018-07-14T18:01:13Z
    FromStats_BitRate                        : 29730
    FromStats_Duration                       : 01:54:34.910000000
    FromStats_FrameCount                     : 2842
    FromStats_StreamSize                     : 25549396

    Text #2
    ID                                       : 5
    Format                                   : PGS
    Muxing mode                              : zlib
    Codec ID                                 : S_HDMV/PGS
    Codec ID/Info                            : Picture based subtitle format used on BDs/HD-DVDs
    Language                                 : Spanish
    Default                                  : No
    Forced                                   : No
    Statistics Tags Issue                    : mkvmerge v15.0.0 ('Duel with the Devil') 64-bit 2018-07-19 21:57:16 / mkvmerge v15.0.0 ('Duel with the Devil') 64-bit 2018-07-19 21:57:16 / UTC 2018-07-14T18:01:13Z
    FromStats_BitRate                        : 26457
    FromStats_Duration                       : 01:50:58.026000000
    FromStats_FrameCount                     : 2471
    FromStats_StreamSize                     : 22019505

    Text #3
    ID                                       : 6
    Format                                   : PGS
    Muxing mode                              : zlib
    Codec ID                                 : S_HDMV/PGS
    Codec ID/Info                            : Picture based subtitle format used on BDs/HD-DVDs
    Title                                    : Forzados
    Language                                 : Spanish
    Default                                  : Yes
    Forced                                   : Yes
    Statistics Tags Issue                    : mkvmerge v15.0.0 ('Duel with the Devil') 64-bit 2018-07-19 21:57:16 / mkvmerge v15.0.0 ('Duel with the Devil') 64-bit 2018-07-19 21:57:16 / UTC 2018-07-14T18:01:13Z
    FromStats_BitRate                        : 701
    FromStats_Duration                       : 01:50:21.782000000
    FromStats_FrameCount                     : 64
    FromStats_StreamSize                     : 580980

    Menu
    00:00:00.000                             : :Chapter 1
    00:03:10.065                             : :Chapter 2
    00:05:37.003                             : :Chapter 3
    00:08:04.192                             : :Chapter 4
    00:11:16.551                             : :Chapter 5
    00:14:03.009                             : :Chapter 6
    00:17:53.281                             : :Chapter 7
    00:19:34.965                             : :Chapter 8
    00:24:27.549                             : :Chapter 9
    00:29:04.493                             : :Chapter 10
    00:31:36.478                             : :Chapter 11
    00:33:53.490                             : :Chapter 12
    00:38:21.174                             : :Chapter 13
    00:48:53.764                             : :Chapter 14
    00:51:34.091                             : :Chapter 15
    00:55:35.165                             : :Chapter 16
    00:59:50.295                             : :Chapter 17
    01:03:31.933                             : :Chapter 18
    01:06:43.458                             : :Chapter 19
    01:09:55.733                             : :Chapter 20
    01:12:06.697                             : :Chapter 21
    01:14:26.879                             : :Chapter 22
    01:16:16.697                             : :Chapter 23
    01:20:20.649                             : :Chapter 24
    01:24:27.521                             : :Chapter 25
    01:26:31.603                             : :Chapter 26
    01:36:26.698                             : :Chapter 27
    01:39:11.821                             : :Chapter 28
    01:44:09.326                             : :Chapter 29
    01:45:45.339                             : :Chapter 30
    01:49:12.713                             : :Chapter 31
    01:53:37.394                             : :Chapter 32

  • Peso: 12.2 GiB

Sinopsis

Una máquina que descifra los más complicados sistemas de comunicación es el objetivo del agente británico James Bond, que esta vez tiene que viajar hasta Estambul para desarrollar su misión.

Ficha técnica

Video trailer de la película

Enlaces de descarga

Rip de Bluray

Descargar James Bond From Russia with Love (1963) Full 1080p Latino




Aportes de DPeliculasHDmega la pass es:dpeliculashdmega.org Aportes de CinemaniaHD la pass es:cinemaniahdd.com

Películas relacionadas

  • El Justiciero 2 (2018) 1080p Latino

    2018
    El Justiciero 2 (2018) 1080p Latino

    1.0 2h 0m 2018

    Descargar El Justiciero 2 (2018) 1080p Latino, Mega, Google Drive. Robert McCall (Denzel Washington)...

    Director: Donald Sparks

    Género: Acción

    Actores: Wesley Pereira

  • Kin (2018) Full 1080p Latino

    2018
    Kin (2018) Full 1080p Latino

    5.0 1h 42m 2018

    Perseguidos por un criminal vengativo (James Franco) y una banda de soldados sobrenaturales,​ un exconvicto...

    Director: Josh Baker

    Género: Acción

    Actores: Zoë Kravitz

  • Los increíbles 2 (2018) Full 1080p Latino

    2018
    Los increíbles 2 (2018) Full 1080p Latino

    5.0 1h 58m 2018

    Helen tiene que liderar una campaña para que los superhéroes regresen, mientras Bob vive su vida "normal"...

    Director: Seong-Young Kim

    Género: Acción

    Actores: Usher

  • Searching (2018) WEBDL 1080p Subtitulado

    2018
    Searching (2018) WEBDL 1080p Subtitulado

    0.0 1h 41m 2018

    Después de que la hija de 16 años de David Kim desaparece, se abre una investigación policial. Pero...

    Director: Aneesh Chaganty

    Género: Drama

    Actores: Thomas Barbusca

Comentarios 0