James Bond For Your Eyes Only (1981) Full 1080p Latino

376 vistas
1 estrella2 estrellas3 estrellas4 estrellas5 estrellas (Ninguna valoración todavía)
Cargando…

Información de James Bond For Your Eyes Only (1981) Full 1080p Latino

Datos de la película

  • Calidad: Full 1080p
  • Audio: Español Latino AC3 5.1 BLURAY - Ingles DTS 5.1 BLURAY
  • Subtitulos: Español Latino PGS - Ingles PGS
  • Resolución: 1920x1080p
  • Formato: MKV
  • Codec: H.264
  • Encoder: Dracarys
  • Mediainfo: Clic para Mostrar Datos Ver
  • Format                                   : Matroska
    Format version                           : Version 4 / Version 2
    File size                                : 6.72 GiB
    Duration                                 : 2 h 7 min
    Overall bit rate                         : 7 520 kb/s
    Movie name                               : CinemaniaHDD.net
    Encoded date                             : UTC 2018-07-25 23:22:32 / UTC 2018-07-18T02:42:04Z
    Writing application                      : mkvmerge v15.0.0 ('Duel with the Devil') 64-bit
    Writing library                          : libebml v1.3.5 + libmatroska v1.4.5 / Lavf57.7.2

    Video
    ID                                       : 1
    Format                                   : AVC
    Format/Info                              : Advanced Video Codec
    Format profile                           : High@L4.1
    Format settings                          : CABAC / 4 Ref Frames
    Format settings, CABAC                   : Yes
    Format settings, RefFrames               : 4 frames
    Codec ID                                 : V_MPEG4/ISO/AVC
    Duration                                 : 2 h 7 min
    Bit rate                                 : 5 413 kb/s
    Width                                    : 1 920 pixels
    Height                                   : 1 080 pixels
    Display aspect ratio                     : 16:9
    Frame rate mode                          : Constant
    Frame rate                               : 23.976 (24000/1001) FPS
    Color space                              : YUV
    Chroma subsampling                       : 4:2:0
    Bit depth                                : 8 bits
    Scan type                                : Progressive
    Bits/(Pixel*Frame)                       : 0.109
    Stream size                              : 4.84 GiB (72%)
    Title                                    : James Bond For Your Eyes Only (1981) Full 1080p Latino
    Writing library                          : x264 core 148 r2708 86b7198
    Encoding settings                        : cabac=1 / ref=4 / deblock=1:0:0 / analyse=0x3:0x133 / me=esa / subme=10 / psy=1 / psy_rd=1.00:0.00 / mixed_ref=1 / me_range=24 / chroma_me=1 / trellis=2 / 8x8dct=1 / cqm=0 / deadzone=21,11 / fast_pskip=1 / chroma_qp_offset=-2 / threads=34 / lookahead_threads=5 / sliced_threads=0 / nr=0 / decimate=1 / interlaced=0 / bluray_compat=0 / constrained_intra=0 / bframes=8 / b_pyramid=2 / b_adapt=2 / b_bias=0 / direct=3 / weightb=1 / open_gop=0 / weightp=2 / keyint=240 / keyint_min=24 / scenecut=40 / intra_refresh=0 / rc_lookahead=60 / rc=crf / mbtree=1 / crf=20.0 / qcomp=0.60 / qpmin=0 / qpmax=69 / qpstep=4 / vbv_maxrate=62500 / vbv_bufsize=78125 / crf_max=0.0 / nal_hrd=none / filler=0 / ip_ratio=1.40 / aq=1:1.00
    Language                                 : English
    Default                                  : Yes
    Forced                                   : No
    Color range                              : Limited
    Color primaries                          : BT.709
    Transfer characteristics                 : BT.709
    Matrix coefficients                      : BT.709
    Statistics Tags Issue                    : mkvmerge v15.0.0 ('Duel with the Devil') 64-bit 2018-07-25 23:22:32 / mkvmerge v15.0.0 ('Duel with the Devil') 64-bit 2018-07-25 23:22:32 / UTC 2018-07-18T02:42:04Z
    FromStats_BitRate                        : 5547640
    FromStats_Duration                       : 02:07:59.255000000
    FromStats_FrameCount                     : 184118
    FromStats_StreamSize                     : 5325218708

    Audio #1
    ID                                       : 2
    Format                                   : AC-3
    Format/Info                              : Audio Coding 3
    Format settings, Endianness              : Big
    Codec ID                                 : A_AC3
    Duration                                 : 2 h 7 min
    Bit rate mode                            : Constant
    Bit rate                                 : 448 kb/s
    Channel(s)                               : 6 channels
    Channel positions                        : Front: L C R, Side: L R, LFE
    Sampling rate                            : 48.0 kHz
    Frame rate                               : 31.250 FPS (1536 SPF)
    Bit depth                                : 16 bits
    Compression mode                         : Lossy
    Stream size                              : 410 MiB (6%)
    Language                                 : Spanish
    Service kind                             : Complete Main
    Default                                  : Yes
    Forced                                   : No
    Statistics Tags Issue                    : mkvmerge v15.0.0 ('Duel with the Devil') 64-bit 2018-07-25 23:22:32 / mkvmerge v15.0.0 ('Duel with the Devil') 64-bit 2018-07-25 23:22:32 / UTC 2018-07-18T02:42:04Z
    FromStats_BitRate                        : 448000
    FromStats_Duration                       : 02:07:59.328000000
    FromStats_FrameCount                     : 239979
    FromStats_StreamSize                     : 430042368

    Audio #2
    ID                                       : 3
    Format                                   : DTS
    Format/Info                              : Digital Theater Systems
    Mode                                     : 16
    Format settings, Endianness              : Big
    Codec ID                                 : A_DTS
    Duration                                 : 2 h 7 min
    Bit rate mode                            : Constant
    Bit rate                                 : 1 509 kb/s
    Channel(s)                               : 6 channels
    Channel positions                        : Front: L C R, Side: L R, LFE
    Sampling rate                            : 48.0 kHz
    Frame rate                               : 93.750 FPS (512 SPF)
    Bit depth                                : 24 bits
    Compression mode                         : Lossy
    Stream size                              : 1.35 GiB (20%)
    Language                                 : English
    Default                                  : No
    Forced                                   : No
    Statistics Tags Issue                    : mkvmerge v15.0.0 ('Duel with the Devil') 64-bit 2018-07-25 23:22:32 / mkvmerge v15.0.0 ('Duel with the Devil') 64-bit 2018-07-25 23:22:32 / UTC 2018-07-18T02:42:04Z
    FromStats_BitRate                        : 1509000
    FromStats_Duration                       : 02:07:59.296000000
    FromStats_FrameCount                     : 719934
    FromStats_StreamSize                     : 1448507208

    Text #1
    ID                                       : 4
    Format                                   : PGS
    Muxing mode                              : zlib
    Codec ID                                 : S_HDMV/PGS
    Codec ID/Info                            : Picture based subtitle format used on BDs/HD-DVDs
    Language                                 : English
    Default                                  : No
    Forced                                   : No
    Statistics Tags Issue                    : mkvmerge v15.0.0 ('Duel with the Devil') 64-bit 2018-07-25 23:22:32 / mkvmerge v15.0.0 ('Duel with the Devil') 64-bit 2018-07-25 23:22:32 / UTC 2018-07-18T02:42:04Z
    FromStats_BitRate                        : 23481
    FromStats_Duration                       : 02:07:19.591000000
    FromStats_FrameCount                     : 2423
    FromStats_StreamSize                     : 22423816

    Text #2
    ID                                       : 5
    Format                                   : PGS
    Muxing mode                              : zlib
    Codec ID                                 : S_HDMV/PGS
    Codec ID/Info                            : Picture based subtitle format used on BDs/HD-DVDs
    Language                                 : Spanish
    Default                                  : No
    Forced                                   : No
    Statistics Tags Issue                    : mkvmerge v15.0.0 ('Duel with the Devil') 64-bit 2018-07-25 23:22:32 / mkvmerge v15.0.0 ('Duel with the Devil') 64-bit 2018-07-25 23:22:32 / UTC 2018-07-18T02:42:04Z
    FromStats_BitRate                        : 16180
    FromStats_Duration                       : 02:06:37.965000000
    FromStats_FrameCount                     : 1792
    FromStats_StreamSize                     : 15366911

    Text #3
    ID                                       : 6
    Format                                   : PGS
    Muxing mode                              : zlib
    Codec ID                                 : S_HDMV/PGS
    Codec ID/Info                            : Picture based subtitle format used on BDs/HD-DVDs
    Title                                    : Forzados
    Language                                 : Spanish
    Default                                  : Yes
    Forced                                   : No
    Statistics Tags Issue                    : mkvmerge v15.0.0 ('Duel with the Devil') 64-bit 2018-07-25 23:22:32 / mkvmerge v15.0.0 ('Duel with the Devil') 64-bit 2018-07-25 23:22:32 / UTC 2018-07-18T02:42:04Z
    FromStats_BitRate                        : 234
    FromStats_Duration                       : 02:06:37.965000000
    FromStats_FrameCount                     : 26
    FromStats_StreamSize                     : 222779

    Menu
    00:00:00.000                             : :Chapter 1
    00:06:38.565                             : :Chapter 2
    00:09:22.312                             : :Chapter 3
    00:13:56.669                             : :Chapter 4
    00:16:52.929                             : :Chapter 5
    00:19:04.685                             : :Chapter 6
    00:24:12.076                             : :Chapter 7
    00:28:31.919                             : :Chapter 8
    00:33:46.858                             : :Chapter 9
    00:39:28.658                             : :Chapter 10
    00:43:02.163                             : :Chapter 11
    00:47:05.323                             : :Chapter 12
    00:51:58.157                             : :Chapter 13
    00:55:37.334                             : :Chapter 14
    00:58:33.719                             : :Chapter 15
    01:00:35.882                             : :Chapter 16
    01:04:41.628                             : :Chapter 17
    01:11:07.263                             : :Chapter 18
    01:14:30.216                             : :Chapter 19
    01:18:40.966                             : :Chapter 20
    01:20:26.238                             : :Chapter 21
    01:23:37.679                             : :Chapter 22
    01:33:15.173                             : :Chapter 23
    01:37:45.360                             : :Chapter 24
    01:42:51.749                             : :Chapter 25
    01:44:55.706                             : :Chapter 26
    01:53:52.784                             : :Chapter 27
    01:57:19.908                             : :Chapter 28
    02:00:20.338                             : :Chapter 29
    02:01:12.348                             : :Chapter 30
    02:03:19.976                             : :Chapter 31
    02:05:19.762                             : :Chapter 32

  • Peso: 6.72 GiB

Sinopsis

El agente 007 debe acudir a recuperar el ATAC, un dispositivo militar secreto de guía por satélite, antes de que sea vendido a los rusos.

Ficha técnica

Video trailer de la película

Enlaces de descarga

Rip de Bluray

Descargar James Bond For Your Eyes Only (1981) Full 1080p Latino




Aportes de DPeliculasHDmega la pass es:dpeliculashdmega.org Aportes de CinemaniaHD la pass es:cinemaniahdd.com

Películas relacionadas

  • La Monja (2018) Web-DL 1080p Latino

    2018
    La Monja (2018) Web-DL 1080p Latino

    5.0 1h 36m 2018

    Descargar La Monja (2018) Web-DL 1080p Latino, Mega, Google Drive. Cuando una joven monja se suicida...

    Director: Jody Blose

    Género: Misterio

    Actores: Tudor Munteanu

  • El Jefe de la Mafia: Gotti (2018) 1080p Latino

    2018
    El Jefe de la Mafia: Gotti (2018) 1080p Latino

    1.0 1h 50m 2018

    Descargar El Jefe de la Mafia: Gotti (2018) 1080p Latino, Mega, Google Drive. Biopic del famoso mafioso...

    Director: S. B. Weathersby

    Género: Crimen

    Actores: William DeMeo

  • Mision: Imposible 2 (2000) Full 1080p Latino

    2000
    Mision: Imposible 2 (2000) Full 1080p Latino

    3.0 2h 3m 2000

    Descargar Mision: Imposible 2 (2000) Full 1080p Latino, Mega, Google Drive. El agente especial Ethan...

    Director: William H. Burton Jr.

    Género: Acción

    Actores: William Mapother

  • Mision: Imposible 2 (2000) 1080p Latino

    2000
    Mision: Imposible 2 (2000) 1080p Latino

    1.0 2h 3m 2000

    Descargar Mision: Imposible 2 (2000) 1080p Latino, Mega, Google Drive. El agente especial Ethan Hunt...

    Director: William H. Burton Jr.

    Género: Acción

    Actores: William Mapother

  • Mision: Imposible (1996) Full 1080p Latino

    1996
    Mision: Imposible (1996) Full 1080p Latino

    3.7 1h 50m 1996

    Mission: Impossible (1996) Full 1080p Latino, Mega, Google Drive. Ethan Hunt es un superespía capaz...

    Director: Nick Moore

    Género: Acción

    Actores: Ving Rhames

Comentarios 1
  • ocpgaiden - 26 julio, 2018

    gracias por solo para tus ojos, saludos