James Bond Dr. No (1962) Full 1080p Latino

839 vistas
1 estrella2 estrellas3 estrellas4 estrellas5 estrellas (1 votos, promedio: 5,00 de 5)
Cargando…

Información de James Bond Dr. No (1962) Full 1080p Latino

Datos de la película

  • Calidad: Full 1080p
  • Audio: Español Latino AC3 5.1 BLURAY - Ingles DTS 5.1 BLURAY
  • Subtitulos: Español Latino PGS - Ingles PGS
  • Resolución: 1920x1080p
  • Formato: MKV
  • Codec: H.264
  • Encoder: Dracarys
  • Mediainfo: Clic para Mostrar Datos Ver
  • Format                                   : Matroska
    Format version                           : Version 4 / Version 2
    File size                                : 14.0 GiB
    Duration                                 : 1 h 49 min
    Overall bit rate                         : 18.3 Mb/s
    Movie name                               : CinemaniaHDD.net
    Encoded date                             : UTC 2018-07-19 21:37:37 / UTC 2018-07-14T07:56:30Z
    Writing application                      : mkvmerge v15.0.0 ('Duel with the Devil') 64-bit
    Writing library                          : libebml v1.3.5 + libmatroska v1.4.5 / Lavf57.7.2

    Video
    ID                                       : 1
    Format                                   : AVC
    Format/Info                              : Advanced Video Codec
    Format profile                           : High@L4.1
    Format settings                          : CABAC / 4 Ref Frames
    Format settings, CABAC                   : Yes
    Format settings, RefFrames               : 4 frames
    Codec ID                                 : V_MPEG4/ISO/AVC
    Duration                                 : 1 h 49 min
    Bit rate                                 : 15.9 Mb/s
    Width                                    : 1 920 pixels
    Height                                   : 1 080 pixels
    Display aspect ratio                     : 16:9
    Frame rate mode                          : Constant
    Frame rate                               : 23.976 (24000/1001) FPS
    Color space                              : YUV
    Chroma subsampling                       : 4:2:0
    Bit depth                                : 8 bits
    Scan type                                : Progressive
    Bits/(Pixel*Frame)                       : 0.321
    Stream size                              : 12.2 GiB (87%)
    Title                                    : James Bond Dr. No (1962) Full 1080p Latino
    Writing library                          : x264 core 148 r2708 86b7198
    Encoding settings                        : cabac=1 / ref=4 / deblock=1:0:0 / analyse=0x3:0x133 / me=esa / subme=10 / psy=1 / psy_rd=1.00:0.00 / mixed_ref=1 / me_range=24 / chroma_me=1 / trellis=2 / 8x8dct=1 / cqm=0 / deadzone=21,11 / fast_pskip=1 / chroma_qp_offset=-2 / threads=34 / lookahead_threads=5 / sliced_threads=0 / nr=0 / decimate=1 / interlaced=0 / bluray_compat=0 / constrained_intra=0 / bframes=8 / b_pyramid=2 / b_adapt=2 / b_bias=0 / direct=3 / weightb=1 / open_gop=0 / weightp=2 / keyint=240 / keyint_min=24 / scenecut=40 / intra_refresh=0 / rc_lookahead=60 / rc=crf / mbtree=1 / crf=20.0 / qcomp=0.60 / qpmin=0 / qpmax=69 / qpstep=4 / vbv_maxrate=62500 / vbv_bufsize=78125 / crf_max=0.0 / nal_hrd=none / filler=0 / ip_ratio=1.40 / aq=1:1.00
    Language                                 : English
    Default                                  : Yes
    Forced                                   : No
    Color range                              : Limited
    Color primaries                          : BT.709
    Transfer characteristics                 : BT.709
    Matrix coefficients                      : BT.709
    Statistics Tags Issue                    : mkvmerge v15.0.0 ('Duel with the Devil') 64-bit 2018-07-19 21:37:37 / mkvmerge v15.0.0 ('Duel with the Devil') 64-bit 2018-07-19 21:37:37 / UTC 2018-07-14T07:56:30Z
    FromStats_BitRate                        : 16278624
    FromStats_Duration                       : 01:49:50.459000000
    FromStats_FrameCount                     : 158013
    FromStats_StreamSize                     : 13410451176

    Audio #1
    ID                                       : 2
    Format                                   : AC-3
    Format/Info                              : Audio Coding 3
    Format settings, Endianness              : Big
    Codec ID                                 : A_AC3
    Duration                                 : 1 h 49 min
    Bit rate mode                            : Constant
    Bit rate                                 : 448 kb/s
    Channel(s)                               : 6 channels
    Channel positions                        : Front: L C R, Side: L R, LFE
    Sampling rate                            : 48.0 kHz
    Frame rate                               : 31.250 FPS (1536 SPF)
    Bit depth                                : 16 bits
    Compression mode                         : Lossy
    Stream size                              : 352 MiB (2%)
    Language                                 : Spanish
    Service kind                             : Complete Main
    Default                                  : Yes
    Forced                                   : No
    Statistics Tags Issue                    : mkvmerge v15.0.0 ('Duel with the Devil') 64-bit 2018-07-19 21:37:37 / mkvmerge v15.0.0 ('Duel with the Devil') 64-bit 2018-07-19 21:37:37 / UTC 2018-07-14T07:56:30Z
    FromStats_BitRate                        : 448000
    FromStats_Duration                       : 01:49:50.464000000
    FromStats_FrameCount                     : 205952
    FromStats_StreamSize                     : 369065984

    Audio #2
    ID                                       : 3
    Format                                   : DTS
    Format/Info                              : Digital Theater Systems
    Mode                                     : 16
    Format settings, Endianness              : Big
    Codec ID                                 : A_DTS
    Duration                                 : 1 h 49 min
    Bit rate mode                            : Constant
    Bit rate                                 : 1 509 kb/s
    Channel(s)                               : 6 channels
    Channel positions                        : Front: L C R, Side: L R, LFE
    Sampling rate                            : 48.0 kHz
    Frame rate                               : 93.750 FPS (512 SPF)
    Bit depth                                : 24 bits
    Compression mode                         : Lossy
    Stream size                              : 1.16 GiB (8%)
    Language                                 : English
    Default                                  : No
    Forced                                   : No
    Statistics Tags Issue                    : mkvmerge v15.0.0 ('Duel with the Devil') 64-bit 2018-07-19 21:37:37 / mkvmerge v15.0.0 ('Duel with the Devil') 64-bit 2018-07-19 21:37:37 / UTC 2018-07-14T07:56:30Z
    FromStats_BitRate                        : 1508999
    FromStats_Duration                       : 01:49:50.454000000
    FromStats_FrameCount                     : 617855
    FromStats_StreamSize                     : 1243124260

    Text #1
    ID                                       : 4
    Format                                   : PGS
    Muxing mode                              : zlib
    Codec ID                                 : S_HDMV/PGS
    Codec ID/Info                            : Picture based subtitle format used on BDs/HD-DVDs
    Language                                 : English
    Default                                  : No
    Forced                                   : No
    Statistics Tags Issue                    : mkvmerge v15.0.0 ('Duel with the Devil') 64-bit 2018-07-19 21:37:37 / mkvmerge v15.0.0 ('Duel with the Devil') 64-bit 2018-07-19 21:37:37 / UTC 2018-07-14T07:56:30Z
    FromStats_BitRate                        : 34413
    FromStats_Duration                       : 01:47:52.174000000
    FromStats_FrameCount                     : 2222
    FromStats_StreamSize                     : 27841358

    Text #2
    ID                                       : 5
    Format                                   : PGS
    Muxing mode                              : zlib
    Codec ID                                 : S_HDMV/PGS
    Codec ID/Info                            : Picture based subtitle format used on BDs/HD-DVDs
    Language                                 : Spanish
    Default                                  : No
    Forced                                   : No
    Statistics Tags Issue                    : mkvmerge v15.0.0 ('Duel with the Devil') 64-bit 2018-07-19 21:37:37 / mkvmerge v15.0.0 ('Duel with the Devil') 64-bit 2018-07-19 21:37:37 / UTC 2018-07-14T07:56:30Z
    FromStats_BitRate                        : 30706
    FromStats_Duration                       : 01:45:54.849000000
    FromStats_FrameCount                     : 2074
    FromStats_StreamSize                     : 24391721

    Text #3
    ID                                       : 6
    Format                                   : PGS
    Muxing mode                              : zlib
    Codec ID                                 : S_HDMV/PGS
    Codec ID/Info                            : Picture based subtitle format used on BDs/HD-DVDs
    Title                                    : Forzados
    Language                                 : Spanish
    Default                                  : Yes
    Forced                                   : Yes
    Statistics Tags Issue                    : mkvmerge v15.0.0 ('Duel with the Devil') 64-bit 2018-07-19 21:37:37 / mkvmerge v15.0.0 ('Duel with the Devil') 64-bit 2018-07-19 21:37:37 / UTC 2018-07-14T07:56:30Z
    FromStats_BitRate                        : 226
    FromStats_Duration                       : 01:45:54.849000000
    FromStats_FrameCount                     : 18
    FromStats_StreamSize                     : 180110

    Menu
    00:00:00.000                             : :Chapter 1
    00:02:50.671                             : :Chapter 2
    00:06:33.685                             : :Chapter 3
    00:09:41.915                             : :Chapter 4
    00:16:26.861                             : :Chapter 5
    00:19:00.848                             : :Chapter 6
    00:22:06.492                             : :Chapter 7
    00:24:32.471                             : :Chapter 8
    00:26:43.602                             : :Chapter 9
    00:28:28.123                             : :Chapter 10
    00:31:22.255                             : :Chapter 11
    00:36:07.582                             : :Chapter 12
    00:37:39.257                             : :Chapter 13
    00:41:18.059                             : :Chapter 14
    00:44:38.217                             : :Chapter 15
    00:46:44.677                             : :Chapter 16
    00:48:18.896                             : :Chapter 17
    00:51:24.248                             : :Chapter 18
    00:55:28.575                             : :Chapter 19
    00:58:50.110                             : :Chapter 20
    01:01:55.921                             : :Chapter 21
    01:08:08.126                             : :Chapter 22
    01:12:39.856                             : :Chapter 23
    01:15:17.930                             : :Chapter 24
    01:18:04.305                             : :Chapter 25
    01:20:54.433                             : :Chapter 26
    01:26:28.600                             : :Chapter 27
    01:34:00.760                             : :Chapter 28
    01:39:03.271                             : :Chapter 29
    01:43:05.429                             : :Chapter 30
    01:45:19.021                             : :Chapter 31
    01:47:30.194                             : :Chapter 32

  • Peso: 14.0 GiB

Sinopsis

James Bond llega a Jamaica con la misión de investigar los asesinatos cometidos por un agente especial británico y su secretaria. Pero, al mismo tiempo, descubre la existencia de una siniestra organización en la isla Crab Key. En esta ocasión su enemigo es el Doctor No, que, ayudado por su cómplice, el profesor Dent, se propone ejecutar un siniestro plan: desviar la trayectoria de los cohetes de Cabo Cañaveral.

Ficha técnica

Video trailer de la película

Enlaces de descarga

Rip de Bluray

Descargar James Bond Dr. No (1962) Full 1080p Latino




Aportes de DPeliculasHDmega la pass es:dpeliculashdmega.org Aportes de CinemaniaHD la pass es:cinemaniahdd.com

Películas relacionadas

  • El Justiciero 2 (2018) 1080p Latino

    2018
    El Justiciero 2 (2018) 1080p Latino

    1.0 2h 0m 2018

    Descargar El Justiciero 2 (2018) 1080p Latino, Mega, Google Drive. Robert McCall (Denzel Washington)...

    Director: Donald Sparks

    Género: Acción

    Actores: Wesley Pereira

  • Kin (2018) Full 1080p Latino

    2018
    Kin (2018) Full 1080p Latino

    5.0 1h 42m 2018

    Perseguidos por un criminal vengativo (James Franco) y una banda de soldados sobrenaturales,​ un exconvicto...

    Director: Josh Baker

    Género: Acción

    Actores: Zoë Kravitz

  • Los increíbles 2 (2018) Full 1080p Latino

    2018
    Los increíbles 2 (2018) Full 1080p Latino

    5.0 1h 58m 2018

    Helen tiene que liderar una campaña para que los superhéroes regresen, mientras Bob vive su vida "normal"...

    Director: Seong-Young Kim

    Género: Acción

    Actores: Usher

  • Searching (2018) WEBDL 1080p Subtitulado

    2018
    Searching (2018) WEBDL 1080p Subtitulado

    0.0 1h 41m 2018

    Después de que la hija de 16 años de David Kim desaparece, se abre una investigación policial. Pero...

    Director: Aneesh Chaganty

    Género: Drama

    Actores: Thomas Barbusca

Comentarios 3
  • ocpgaiden - 20 julio, 2018

    gracias por la peliculas de 007 {Sean Connery}, saludos

  • The Principal - 20 julio, 2018

    wow amigo disculpa pero me las llevo todas…y puedes desirme si las vas a postear todas….creo q son como 25 movies o Algo asi…gracias muy atento!

    1-Dr. No-1962
    2-Russia With Love-1963
    3-Goldfinger-1964
    4-Thunderball-1965
    5-You Only Live Twice-1967
    6-On Her Majesty’s Secret Service-1969
    7-Diamonds Are Forever-1971
    8-Live and Let Die-1973
    9-The Man With The Golden Gun-1974
    10-The Spy Who Loved Me-1977
    11-Moonraker-1979
    12-For Your Eyes Only-1981
    13-Octopussy-June-1983
    14-Never Say Never Again-October-1983
    15-A View To A Kill-1985
    16-The Living Daylights-1987
    17-Licence To Kill-1989
    18-Goldeneye-1995
    19-Tomorrow Never Dies-1997
    20-The World Is Not Enough-1999
    21-Die Another Day-2002
    22-Casino Royale-2006
    23-Quantum of Solace-2008
    24-Skyfall-2012
    25-Spectre-2015

    • Dracarys - 20 julio, 2018

      si ya las tengo todas listas el unos dias estaran todas!