James Bond Casino Royale (2006) Full 1080p Latino

1.495 vistas
1 estrella2 estrellas3 estrellas4 estrellas5 estrellas (5 votos, promedio: 2,60 de 5)
Cargando…

Información de James Bond Casino Royale (2006) Full 1080p Latino

Datos de la película

  • Calidad: Full 1080p
  • Audio: Español Latino AC3 5.1 BLURAY - Ingles DTS 5.1 BLURAY
  • Subtitulos: Español Latino PGS - Ingles PGS
  • Resolución: 1920x1080p
  • Formato: MKV
  • Codec: H.264
  • Encoder: Dracarys
  • Mediainfo: Clic para Mostrar Datos Ver
  • Format                                   : Matroska
    Format version                           : Version 4 / Version 2
    File size                                : 12.5 GiB
    Duration                                 : 2 h 24 min
    Overall bit rate                         : 12.4 Mb/s
    Movie name                               : CinemaniaHDD.net
    Encoded date                             : UTC 2018-08-31 03:36:15 / UTC 2018-07-20T05:34:28Z
    Writing application                      : mkvmerge v15.0.0 ('Duel with the Devil') 64-bit
    Writing library                          : libebml v1.3.5 + libmatroska v1.4.5 / Lavf57.7.2

    Video
    ID                                       : 1
    Format                                   : AVC
    Format/Info                              : Advanced Video Codec
    Format profile                           : [email protected]
    Format settings                          : CABAC / 4 Ref Frames
    Format settings, CABAC                   : Yes
    Format settings, RefFrames               : 4 frames
    Codec ID                                 : V_MPEG4/ISO/AVC
    Duration                                 : 2 h 24 min
    Bit rate                                 : 10.9 Mb/s
    Width                                    : 1 920 pixels
    Height                                   : 1 080 pixels
    Display aspect ratio                     : 16:9
    Frame rate mode                          : Constant
    Frame rate                               : 23.976 (24000/1001) FPS
    Color space                              : YUV
    Chroma subsampling                       : 4:2:0
    Bit depth                                : 8 bits
    Scan type                                : Progressive
    Bits/(Pixel*Frame)                       : 0.220
    Stream size                              : 11.0 GiB (88%)
    Title                                    : [20] James Bond Casino Royale (2006) Full 1080p Latino
    Writing library                          : x264 core 148 r2708 86b7198
    Encoding settings                        : cabac=1 / ref=4 / deblock=1:0:0 / analyse=0x3:0x133 / me=esa / subme=10 / psy=1 / psy_rd=1.00:0.00 / mixed_ref=1 / me_range=24 / chroma_me=1 / trellis=2 / 8x8dct=1 / cqm=0 / deadzone=21,11 / fast_pskip=1 / chroma_qp_offset=-2 / threads=34 / lookahead_threads=5 / sliced_threads=0 / nr=0 / decimate=1 / interlaced=0 / bluray_compat=0 / constrained_intra=0 / bframes=8 / b_pyramid=2 / b_adapt=2 / b_bias=0 / direct=3 / weightb=1 / open_gop=0 / weightp=2 / keyint=240 / keyint_min=24 / scenecut=40 / intra_refresh=0 / rc_lookahead=60 / rc=crf / mbtree=1 / crf=20.0 / qcomp=0.60 / qpmin=0 / qpmax=69 / qpstep=4 / vbv_maxrate=62500 / vbv_bufsize=78125 / crf_max=0.0 / nal_hrd=none / filler=0 / ip_ratio=1.40 / aq=1:1.00
    Language                                 : English
    Default                                  : Yes
    Forced                                   : No
    Color range                              : Limited
    Color primaries                          : BT.709
    Transfer characteristics                 : BT.709
    Matrix coefficients                      : BT.709
    Statistics Tags Issue                    : mkvmerge v15.0.0 ('Duel with the Devil') 64-bit 2018-08-31 03:36:15 / mkvmerge v15.0.0 ('Duel with the Devil') 64-bit 2018-08-31 03:36:15 / UTC 2018-07-20T05:34:28Z
    FromStats_BitRate                        : 11174520
    FromStats_Duration                       : 02:24:33.081000000
    FromStats_FrameCount                     : 207946
    FromStats_StreamSize                     : 12114690598

    Audio #1
    ID                                       : 2
    Format                                   : AC-3
    Format/Info                              : Audio Coding 3
    Format settings, Endianness              : Big
    Codec ID                                 : A_AC3
    Duration                                 : 2 h 24 min
    Bit rate mode                            : Constant
    Bit rate                                 : 448 kb/s
    Channel(s)                               : 6 channels
    Channel positions                        : Front: L C R, Side: L R, LFE
    Sampling rate                            : 48.0 kHz
    Frame rate                               : 31.250 FPS (1536 SPF)
    Bit depth                                : 16 bits
    Compression mode                         : Lossy
    Stream size                              : 463 MiB (4%)
    Language                                 : Spanish
    Service kind                             : Complete Main
    Default                                  : Yes
    Forced                                   : No
    Statistics Tags Issue                    : mkvmerge v15.0.0 ('Duel with the Devil') 64-bit 2018-08-31 03:36:15 / mkvmerge v15.0.0 ('Duel with the Devil') 64-bit 2018-08-31 03:36:15 / UTC 2018-07-20T05:34:28Z
    FromStats_BitRate                        : 448000
    FromStats_Duration                       : 02:24:33.152000000
    FromStats_FrameCount                     : 271036
    FromStats_StreamSize                     : 485696512

    Audio #2
    ID                                       : 3
    Format                                   : DTS
    Format/Info                              : Digital Theater Systems
    Mode                                     : 16
    Format settings, Endianness              : Big
    Codec ID                                 : A_DTS
    Duration                                 : 2 h 24 min
    Bit rate mode                            : Constant
    Bit rate                                 : 768 kb/s
    Channel(s)                               : 6 channels
    Channel positions                        : Front: L C R, Side: L R, LFE
    Sampling rate                            : 48.0 kHz
    Frame rate                               : 93.750 FPS (512 SPF)
    Bit depth                                : 24 bits
    Compression mode                         : Lossy
    Stream size                              : 794 MiB (6%)
    Language                                 : English
    Default                                  : No
    Forced                                   : No
    Statistics Tags Issue                    : mkvmerge v15.0.0 ('Duel with the Devil') 64-bit 2018-08-31 03:36:15 / mkvmerge v15.0.0 ('Duel with the Devil') 64-bit 2018-08-31 03:36:15 / UTC 2018-07-20T05:34:28Z
    FromStats_BitRate                        : 768000
    FromStats_Duration                       : 02:24:33.120000000
    FromStats_FrameCount                     : 813105
    FromStats_StreamSize                     : 832619520

    Text #1
    ID                                       : 4
    Format                                   : PGS
    Muxing mode                              : zlib
    Codec ID                                 : S_HDMV/PGS
    Codec ID/Info                            : Picture based subtitle format used on BDs/HD-DVDs
    Language                                 : English
    Default                                  : No
    Forced                                   : No
    Statistics Tags Issue                    : mkvmerge v15.0.0 ('Duel with the Devil') 64-bit 2018-08-31 03:36:15 / mkvmerge v15.0.0 ('Duel with the Devil') 64-bit 2018-08-31 03:36:15 / UTC 2018-07-20T05:34:28Z
    FromStats_BitRate                        : 20121
    FromStats_Duration                       : 02:23:17.297000000
    FromStats_FrameCount                     : 2081
    FromStats_StreamSize                     : 21623886

    Text #2
    ID                                       : 5
    Format                                   : PGS
    Muxing mode                              : zlib
    Codec ID                                 : S_HDMV/PGS
    Codec ID/Info                            : Picture based subtitle format used on BDs/HD-DVDs
    Language                                 : Spanish
    Default                                  : No
    Forced                                   : No
    Statistics Tags Issue                    : mkvmerge v15.0.0 ('Duel with the Devil') 64-bit 2018-08-31 03:36:15 / mkvmerge v15.0.0 ('Duel with the Devil') 64-bit 2018-08-31 03:36:15 / UTC 2018-07-20T05:34:28Z
    FromStats_BitRate                        : 18373
    FromStats_Duration                       : 02:23:50.080000000
    FromStats_FrameCount                     : 2099
    FromStats_StreamSize                     : 19820491

    Menu
    00:00:00.000                             : :Chapter 1
    00:09:37.285                             : :Chapter 2
    00:19:30.503                             : :Chapter 3
    00:25:35.325                             : :Chapter 4
    00:35:18.241                             : :Chapter 5
    00:39:58.855                             : :Chapter 6
    00:45:21.761                             : :Chapter 7
    00:57:50.384                             : :Chapter 8
    01:07:21.621                             : :Chapter 9
    01:17:11.377                             : :Chapter 10
    01:30:05.400                             : :Chapter 11
    01:38:40.498                             : :Chapter 12
    01:43:28.953                             : :Chapter 13
    01:54:01.710                             : :Chapter 14
    02:05:44.704                             : :Chapter 15
    02:13:19.033                             : :Chapter 16

  • Peso: 12.5 GiB

Sinopsis

La primera misión del agente británico James Bond como agente 007 lo lleva hasta Le Chiffre, banquero de los terroristas de todo el mundo. Para detenerlo y desmantelar la red terrorista, Bond debe derrotarlo en una arriesgada partida de póquer en el Casino Royale. Al principio a Bond le disgusta Vesper Lynd, la hermosa oficial del Tesoro que debe vigilar el dinero del gobierno. Pero, a medida que Bond y Vesper se ven obligados a defenderse juntos de los mortales ataques de Le Chiffre y sus secuaces, nace entre ellos una atracción mutua.

Ficha técnica

Video trailer de la película

Enlaces de descarga

Rip de Bluray

Descargar James Bond Casino Royale (2006) Full 1080p Latino




Aportes de DPeliculasHDmega la pass es:dpeliculashdmega.org Aportes de CinemaniaHD la pass es:cinemaniahdd.com

Películas relacionadas

  • Durante la tormenta (2018) NF 1080p Castellano

    2018
    Durante la tormenta (2018) NF 1080p Castellano

    0.0 2h 8m 2018

    Narra cómo una interferencia entre dos tiempos provoca un inquietante efecto mariposa. A consecuencia...

    Director: Oriol Paulo

    Género: Ciencia ficción

    Actores: Silvia Alonso

  • The Dead Lands (2014) 1080p Latino

    2014
    The Dead Lands (2014) 1080p Latino

    0.0 1h 47m 2014

    Tras presenciar cómo su familia es masacrada, Hongi, adolescente hijo de jefe tribal, acudirá a la...

    Director: Toa Fraser

    Género: Acción

    Actores: Xavier Horan

  • Terremoto (2018) Full 1080p Subtitulado

    2018
    Terremoto (2018) Full 1080p Subtitulado

    3.7 1h 46m 2018

    En 1904, un terremoto de magnitud 5,4 sacudió Oslo con el epicentro en “Oslo Graben” bajo la capital...

    Director: John Andreas Andersen

    Género: Aventura

    Actores: Tina Schei

  • Bumblebee (2018) 1080p Latino

    2018
    Bumblebee (2018) 1080p Latino

    5.0 1h 54m 2018

    Sexta entrega de la saga 'Transformers', esta vez centrada en el "hermano pequeño" de los Autobots,...

    Director: Travis Knight

    Género: Acción

    Actores: Yianni Apostolopolous

Comentarios 1
  • ocpgaiden - 01 septiembre, 2018

    gracias por las 4 peliculas restantes de 007 James Bond, la mejor pagina, saludos