×

¿Problemas para descargar con Mozilla, EDGE? Deshabilita la opción "Abrir vinculos en una pestaña nueva" tal como lo muestra ésta imagen.

La Casa De Cera (2005) REMUX 1080p Latino

372 vistas

Información de La Casa De Cera (2005) REMUX 1080p Latino

Datos de la película

  • Calidad: Full 1080p
  • Audio: Español Latino AC3 5.1 BLURAY - Ingles AC3 5.1 BLURAY
  • Subtitulos: Español Latino SRT- FORZADOS SRT
  • Resolución: 1920x1080p
  • Formato: MKV
  • Codec: H.264
  • Encoder: CinefiloCool
  • Mediainfo: Clic para Mostrar Datos Ver
  • La Casa De Cera (2005) REMUX 1080p Latino-CMHDD.mkv
    Format                      : Matroska
    Format version              : Version 4
    File size                   : 15.3 GiB
    Duration                    : 1 h 52 min
    Overall bit rate            : 19.5 Mb/s
    Movie name                  : House Of Wax (2005) CinemaniaHDD.Net
    Encoded date                : UTC 2020-10-18 10:56:45
    Writing application         : mkvmerge v51.0.0 ('I Wish') 64-bit
    Writing library             : libebml v1.4.0 + libmatroska v1.6.2
    Attachments                 : CINEMANIAHD.png

    Video
    ID                          : 1
    Format                      : VC-1
    Format profile              : Advanced@L3
    Codec ID                    : V_MS/VFW/FOURCC / WVC1
    Codec ID/Hint               : Microsoft
    Duration                    : 1 h 52 min
    Bit rate                    : 18.2 Mb/s
    Width                       : 1 920 pixels
    Height                      : 1 080 pixels
    Display aspect ratio        : 16:9
    Frame rate mode             : Constant
    Frame rate                  : 23.976 (24000/1001) FPS
    Color space                 : YUV
    Chroma subsampling          : 4:2:0
    Bit depth                   : 8 bits
    Scan type                   : Progressive
    Compression mode            : Lossy
    Bits/(Pixel*Frame)          : 0.366
    Stream size                 : 14.3 GiB (93%)
    Title                       : REMUX 1080p [CinemaniaHDD]
    Language                    : English
    Default                     : Yes
    Forced                      : No

    Audio #1
    ID                          : 2
    Format                      : AC-3
    Format/Info                 : Audio Coding 3
    Commercial name             : Dolby Digital
    Codec ID                    : A_AC3
    Duration                    : 1 h 52 min
    Bit rate mode               : Constant
    Bit rate                    : 640 kb/s
    Channel(s)                  : 6 channels
    Channel layout              : L R C LFE Ls Rs
    Sampling rate               : 48.0 kHz
    Frame rate                  : 31.250 FPS (1536 SPF)
    Compression mode            : Lossy
    Stream size                 : 516 MiB (3%)
    Title                       : Español Latino [CinemaniaHDD]
    Language                    : Spanish
    Service kind                : Complete Main
    Default                     : Yes
    Forced                      : No

    Audio #2
    ID                          : 3
    Format                      : AC-3
    Format/Info                 : Audio Coding 3
    Commercial name             : Dolby Digital
    Codec ID                    : A_AC3
    Duration                    : 1 h 52 min
    Bit rate mode               : Constant
    Bit rate                    : 640 kb/s
    Channel(s)                  : 6 channels
    Channel layout              : L R C LFE Ls Rs
    Sampling rate               : 48.0 kHz
    Frame rate                  : 31.250 FPS (1536 SPF)
    Compression mode            : Lossy
    Stream size                 : 516 MiB (3%)
    Title                       : Ingles [CinemaniaHDD]
    Language                    : English
    Service kind                : Complete Main
    Default                     : No
    Forced                      : No

    Text #1
    ID                          : 4
    Format                      : UTF-8
    Codec ID                    : S_TEXT/UTF8
    Codec ID/Info               : UTF-8 Plain Text
    Duration                    : 1 h 49 min
    Bit rate                    : 0 b/s
    Count of elements           : 9
    Stream size                 : 157 Bytes (0%)
    Title                       : Forzados-SRT [CinemaniaHDD]
    Language                    : Spanish
    Default                     : Yes
    Forced                      : No

    Text #2
    ID                          : 5
    Format                      : UTF-8
    Codec ID                    : S_TEXT/UTF8
    Codec ID/Info               : UTF-8 Plain Text
    Duration                    : 1 h 50 min
    Bit rate                    : 32 b/s
    Count of elements           : 941
    Stream size                 : 26.7 KiB (0%)
    Title                       : Español-SRT [CinemaniaHDD]
    Language                    : Spanish
    Default                     : No
    Forced                      : No

    Text #3
    ID                          : 6
    Format                      : PGS
    Muxing mode                 : zlib
    Codec ID                    : S_HDMV/PGS
    Codec ID/Info               : Picture based subtitle format used on BDs/HD-DVDs
    Duration                    : 1 h 50 min
    Bit rate                    : 35.8 kb/s
    Count of elements           : 1768
    Stream size                 : 28.3 MiB (0%)
    Title                       : Ingles-PGS [CinemaniaHDD]
    Language                    : English
    Default                     : No
    Forced                      : No

    Menu
    00:00:00.000                : en:Chapter 1
    00:03:05.852                : en:Chapter 2
    00:06:24.217                : en:Chapter 3
    00:09:53.259                : en:Chapter 4
    00:12:58.611                : en:Chapter 5
    00:16:42.001                : en:Chapter 6
    00:19:26.165                : en:Chapter 7
    00:21:58.651                : en:Chapter 8
    00:25:35.367                : en:Chapter 9
    00:29:43.782                : en:Chapter 10
    00:33:48.193                : en:Chapter 11
    00:40:11.743                : en:Chapter 12
    00:44:34.005                : en:Chapter 13
    00:48:19.063                : en:Chapter 14
    00:52:17.801                : en:Chapter 15
    00:55:46.843                : en:Chapter 16
    00:59:14.885                : en:Chapter 17
    01:03:13.289                : en:Chapter 18
    01:06:43.666                : en:Chapter 19
    01:09:02.305                : en:Chapter 20
    01:11:04.260                : en:Chapter 21
    01:13:58.267                : en:Chapter 22
    01:17:40.489                : en:Chapter 23
    01:22:45.627                : en:Chapter 24
    01:27:10.392                : en:Chapter 25
    01:31:49.337                : en:Chapter 26
    01:34:46.347                : en:Chapter 27
    01:38:09.884                : en:Chapter 28
    01:41:15.903                : en:Chapter 29
    01:44:26.260                : en:Chapter 30
    01:47:01.248                : en:Chapter 31

  • Peso: 15.3 GiB

Sinopsis

Descargar La Casa De Cera (2005) REMUX 1080p Latino. Seis amigos que viajan por carretera para asistir al campeonato universitario de fútbol más importante del año, deciden acampar al aire libre la víspera del partido. A la mañana siguiente, se dan cuenta de que su coche ha sido manipulado, así que aceptan la invitación de un conductor que los lleva hasta Ambrose. Al llegar, visitan la principal atracción de la ciudad: la Casa de Cera de Trudy, que está llena de esculturas de cera cuyo parecido con personas reales es asombroso. Cuando descubren, horrorizados, la razón de esta inquietante semejanza, comprenden que o escapan de la ciudad o se convertirán en estatuas del tenebroso museo de cera.

Ficha técnica

Video trailer de la película

Enlaces de descarga

Rip de Bluray

Descargar La Casa De Cera (2005) REMUX 1080p Latino




Aportes de DPeliculasHDmega la pass es:dpeliculashdmega.org Aportes de CinemaniaHD la pass es:cinemaniahdd.com
Guardado en : Drama , Remux , Terror

Películas relacionadas

  • Mi amigo el dragón (2016) REMUX 1080p Latino

    Mi amigo el dragón (2016) REMUX 1080p Latino

    2016
    Mi amigo el dragón (2016) REMUX 1080p Latino

    1h 43m 2016

    Descargar Mi amigo el dragón (2016) REMUX 1080p Latino. Durante años el Sr. Meacham, un viejo tallador...

    Director: Joe Nolan

    Género: Aventura

    Actores: William J. Rawbone

  • El discurso del Rey (2010) 1080p Latino

    El discurso del Rey (2010) 1080p Latino

    2010
    El discurso del Rey (2010) 1080p Latino

    1h 58m 2010

    Descargar El discurso del Rey (2010) 1080p Latino. El duque de York se convirtió en rey de Gran Bretaña...

    Director: Tom Hooper

    Género: Drama

    Actores: Tony Earnshaw

  • El discurso del Rey (2010) Full HD 1080p Latino

    El discurso del Rey (2010) Full HD 1080p Latino

    2010
    El discurso del Rey (2010) Full HD 1080p Latino

    1h 58m 2010

    Descargar El discurso del Rey (2010) Full HD 1080p Latino. El duque de York se convirtió en rey de Gran...

    Director: Tom Hooper

    Género: Drama

    Actores: Tony Earnshaw

  • El discurso del Rey (2010) REMUX 1080p Latino

    El discurso del Rey (2010) REMUX 1080p Latino

    2010
    El discurso del Rey (2010) REMUX 1080p Latino

    1h 58m 2010

    Descargar El discurso del Rey (2010) REMUX 1080p Latino. El duque de York se convirtió en rey de Gran...

    Director: Tom Hooper

    Género: Drama

    Actores: Tony Earnshaw

descargar La Casa De Cera (2005) REMUX 1080p Latino Full 1080p 1080p gratis, La Casa De Cera (2005) REMUX 1080p Latino Full 1080p mega 1 link, La Casa De Cera (2005) REMUX 1080p Latino Full 1080p pelicula completa, descargar La Casa De Cera (2005) REMUX 1080p Latino Full 1080p gratis en mega.

La Casa De Cera (2005) REMUX 1080p Latino pelicula full hd, La Casa De Cera (2005) REMUX 1080p Latino mega latino, La Casa De Cera (2005) REMUX 1080p Latino 4k latino, La Casa De Cera (2005) REMUX 1080p Latino pelicula completa, La Casa De Cera (2005) REMUX 1080p Latino descargar gratis, descargar La Casa De Cera (2005) REMUX 1080p Latino pelicula latino, La Casa De Cera (2005) REMUX 1080p Latino 1 link mega, La Casa De Cera (2005) REMUX 1080p Latino 1 link google drive, La Casa De Cera (2005) REMUX 1080p Latino hd 1080p latino.
Comentarios 0