Happy Gilmore (1996) Full 1080p Latino

1.013 vistas
1 estrella2 estrellas3 estrellas4 estrellas5 estrellas (5 votos, promedio: 5,00 de 5)
Cargando…

Información de Happy Gilmore (1996) Full 1080p Latino

Datos de la película

  • Calidad: Full 1080p
  • Audio: Español Latino DTS 5.1 BLURAY - Ingles DTS 5.1 BLURAY
  • Subtitulos: Español Latino PGS - Ingles PGS
  • Resolución: 1920X1080p
  • Formato: MKV
  • Codec: H.264
  • Encoder: Dracarys
  • Mediainfo: Clic para Mostrar Datos Ver
  • Format                                   : Matroska
    Format version                           : Version 4 / Version 2
    File size                                : 6.16 GiB
    Duration                                 : 1 h 31 min
    Overall bit rate                         : 9 589 kb/s
    Movie name                               : CinemaniaHDD.com
    Encoded date                             : UTC 2018-02-08 03:37:16 / UTC 2018-01-26T11:02:07Z
    Writing application                      : mkvmerge v15.0.0 ('Duel with the Devil') 64-bit
    Writing library                          : libebml v1.3.5 + libmatroska v1.4.5 / Lavf57.7.2

    Video
    ID                                       : 1
    Format                                   : AVC
    Format/Info                              : Advanced Video Codec
    Format profile                           : [email protected]
    Format settings                          : CABAC / 4 Ref Frames
    Format settings, CABAC                   : Yes
    Format settings, RefFrames               : 4 frames
    Codec ID                                 : V_MPEG4/ISO/AVC
    Duration                                 : 1 h 31 min
    Bit rate                                 : 7 121 kb/s
    Width                                    : 1 920 pixels
    Height                                   : 1 080 pixels
    Display aspect ratio                     : 16:9
    Frame rate mode                          : Constant
    Frame rate                               : 23.976 (24000/1001) FPS
    Color space                              : YUV
    Chroma subsampling                       : 4:2:0
    Bit depth                                : 8 bits
    Scan type                                : Progressive
    Bits/(Pixel*Frame)                       : 0.143
    Stream size                              : 4.57 GiB (74%)
    Title                                    : Happy Gilmore (1996) Full 1080p Latino
    Writing library                          : x264 core 148 r2708 86b7198
    Encoding settings                        : cabac=1 / ref=4 / deblock=1:0:0 / analyse=0x3:0x133 / me=esa / subme=10 / psy=1 / psy_rd=1.00:0.00 / mixed_ref=1 / me_range=24 / chroma_me=1 / trellis=2 / 8x8dct=1 / cqm=0 / deadzone=21,11 / fast_pskip=1 / chroma_qp_offset=-2 / threads=34 / lookahead_threads=5 / sliced_threads=0 / nr=0 / decimate=1 / interlaced=0 / bluray_compat=0 / constrained_intra=0 / bframes=8 / b_pyramid=2 / b_adapt=2 / b_bias=0 / direct=3 / weightb=1 / open_gop=0 / weightp=2 / keyint=240 / keyint_min=24 / scenecut=40 / intra_refresh=0 / rc_lookahead=60 / rc=crf / mbtree=1 / crf=20.0 / qcomp=0.60 / qpmin=0 / qpmax=69 / qpstep=4 / vbv_maxrate=62500 / vbv_bufsize=78125 / crf_max=0.0 / nal_hrd=none / filler=0 / ip_ratio=1.40 / aq=1:1.00
    Language                                 : English
    Default                                  : Yes
    Forced                                   : No
    Color range                              : Limited
    Color primaries                          : BT.709
    Transfer characteristics                 : BT.709
    Matrix coefficients                      : BT.709
    Statistics Tags Issue                    : mkvmerge v15.0.0 ('Duel with the Devil') 64-bit 2018-02-08 03:37:16 / mkvmerge v15.0.0 ('Duel with the Devil') 64-bit 2018-02-08 03:37:16 / UTC 2018-01-26T11:02:07Z
    FromStats_BitRate                        : 7283226
    FromStats_Duration                       : 01:31:55.594000000
    FromStats_FrameCount                     : 132242
    FromStats_StreamSize                     : 5021415306

    Audio #1
    ID                                       : 2
    Format                                   : DTS
    Format/Info                              : Digital Theater Systems
    Mode                                     : 16
    Format settings, Endianness              : Big
    Codec ID                                 : A_DTS
    Duration                                 : 1 h 31 min
    Bit rate mode                            : Constant
    Bit rate                                 : 1 509 kb/s
    Channel(s)                               : 6 channels
    Channel positions                        : Front: L C R, Side: L R, LFE
    Sampling rate                            : 48.0 kHz
    Frame rate                               : 93.750 FPS (512 SPF)
    Bit depth                                : 24 bits
    Compression mode                         : Lossy
    Stream size                              : 992 MiB (16%)
    Language                                 : English
    Default                                  : No
    Forced                                   : No
    Statistics Tags Issue                    : mkvmerge v15.0.0 ('Duel with the Devil') 64-bit 2018-02-08 03:37:16 / mkvmerge v15.0.0 ('Duel with the Devil') 64-bit 2018-02-08 03:37:16 / UTC 2018-01-26T11:02:07Z
    FromStats_BitRate                        : 1509000
    FromStats_Duration                       : 01:31:55.584000000
    FromStats_FrameCount                     : 517086
    FromStats_StreamSize                     : 1040377032

    Audio #2
    ID                                       : 3
    Format                                   : DTS
    Format/Info                              : Digital Theater Systems
    Mode                                     : 16
    Format settings, Endianness              : Big
    Codec ID                                 : A_DTS
    Duration                                 : 1 h 31 min
    Bit rate mode                            : Constant
    Bit rate                                 : 768 kb/s
    Channel(s)                               : 6 channels
    Channel positions                        : Front: L C R, Side: L R, LFE
    Sampling rate                            : 48.0 kHz
    Frame rate                               : 93.750 FPS (512 SPF)
    Bit depth                                : 24 bits
    Compression mode                         : Lossy
    Stream size                              : 505 MiB (8%)
    Language                                 : Spanish
    Default                                  : Yes
    Forced                                   : Yes
    Statistics Tags Issue                    : mkvmerge v15.0.0 ('Duel with the Devil') 64-bit 2018-02-08 03:37:16 / mkvmerge v15.0.0 ('Duel with the Devil') 64-bit 2018-02-08 03:37:16 / UTC 2018-01-26T11:02:07Z
    FromStats_BitRate                        : 768000
    FromStats_Duration                       : 01:31:55.584000000
    FromStats_FrameCount                     : 517086
    FromStats_StreamSize                     : 529496064

    Text #1
    ID                                       : 4
    Format                                   : PGS
    Muxing mode                              : zlib
    Codec ID                                 : S_HDMV/PGS
    Codec ID/Info                            : Picture based subtitle format used on BDs/HD-DVDs
    Language                                 : English
    Default                                  : No
    Forced                                   : No
    Statistics Tags Issue                    : mkvmerge v15.0.0 ('Duel with the Devil') 64-bit 2018-02-08 03:37:16 / mkvmerge v15.0.0 ('Duel with the Devil') 64-bit 2018-02-08 03:37:16 / UTC 2018-01-26T11:02:07Z
    FromStats_BitRate                        : 52262
    FromStats_Duration                       : 01:27:09.599000000
    FromStats_FrameCount                     : 2697
    FromStats_StreamSize                     : 34164253

    Text #2
    ID                                       : 5
    Format                                   : PGS
    Muxing mode                              : zlib
    Codec ID                                 : S_HDMV/PGS
    Codec ID/Info                            : Picture based subtitle format used on BDs/HD-DVDs
    Title                                    : Forzados
    Language                                 : Spanish
    Default                                  : Yes
    Forced                                   : Yes
    Statistics Tags Issue                    : mkvmerge v15.0.0 ('Duel with the Devil') 64-bit 2018-02-08 03:37:16 / mkvmerge v15.0.0 ('Duel with the Devil') 64-bit 2018-02-08 03:37:16 / UTC 2018-01-26T11:02:07Z
    FromStats_BitRate                        : 492
    FromStats_Duration                       : 01:03:55.290000000
    FromStats_FrameCount                     : 18
    FromStats_StreamSize                     : 236036

    Text #3
    ID                                       : 6
    Format                                   : PGS
    Muxing mode                              : zlib
    Codec ID                                 : S_HDMV/PGS
    Codec ID/Info                            : Picture based subtitle format used on BDs/HD-DVDs
    Language                                 : Spanish
    Default                                  : No
    Forced                                   : No
    Statistics Tags Issue                    : mkvmerge v15.0.0 ('Duel with the Devil') 64-bit 2018-02-08 03:37:16 / mkvmerge v15.0.0 ('Duel with the Devil') 64-bit 2018-02-08 03:37:16 / UTC 2018-01-26T11:02:07Z
    FromStats_BitRate                        : 39357
    FromStats_Duration                       : 01:27:25.198000000
    FromStats_FrameCount                     : 2474
    FromStats_StreamSize                     : 25804659

    Menu
    00:00:00.000                             : :Chapter 1
    00:07:30.241                             : :Chapter 2
    00:11:07.333                             : :Chapter 3
    00:17:26.420                             : :Chapter 4
    00:30:48.513                             : :Chapter 5
    00:33:41.937                             : :Chapter 6
    00:43:13.758                             : :Chapter 7
    00:50:05.002                             : :Chapter 8
    00:53:35.629                             : :Chapter 9
    01:02:57.774                             : :Chapter 10
    01:07:26.668                             : :Chapter 11
    01:09:27.080                             : :Chapter 12
    01:14:34.553                             : :Chapter 13
    01:19:19.046                             : :Chapter 14
    01:24:16.134                             : :Chapter 15
    01:27:11.309                             : :Chapter 16

  • Peso: 6.16 GiB

Sinopsis

Happy Gilmore era un fanático jugador de hockey y ahora no tiene objetivos en su vida. Cuando su novia le abandona y a su madre la echan del piso en el que vive por no pagar el alquiler, decide dedicarse a jugar al golf en torneos profesionales con la esperanza de reunir el suficiente dinero para cambiar su situación. Resulta que Happy tiene un potentísimo swing que manda la pelota a 400 yardas de distancia. Además, debido a su alocado temperamento, comienza a causar furor entre los medios de comunicación por sus extravagantes payasadas en los campos de golf.

Ficha técnica

  • Titulo original: Happy Gilmore
  • Fecha de lanzamiento: 16-02-1996 (United States of America)
  • Director: Dennis Dugan
  • Género: Comedia, FULL 1080p Plateadas
  • Puntuación: 5.0 5 votos
  • Duración:
    1 h 31 min

Video trailer de la película

Enlaces de descarga

Rip de Bluray

Descargar Happy Gilmore (1996) Full 1080p Latino




Aportes de DPeliculasHDmega la pass es:dpeliculashdmega.org Aportes de CinemaniaHD la pass es:cinemaniahdd.com
Guardado en : Comedia , FULL 1080p Plateadas

Películas relacionadas

  • The Sisters Brothers (2018) 1080p Subtitulado

    2018
    The Sisters Brothers (2018) 1080p Subtitulado

    0.0 2h 2m 2018

    Descargar The Sisters Brothers (2018) 1080p Subtitulado, Mega, Google Drive, Torrent. Narra la historia...

    Director: Jean-Baptiste Pouilloux

    Género: Comedia

    Actores: Zac Abbott

  • Once Upon a Deadpool (2018) Full 1080p Latino

    2018
    Once Upon a Deadpool (2018) Full 1080p Latino

    0.0 1h 57m 2018

    Deadpool (Ryan Reynolds) le cuenta al actor Fred Savage (el niño de "La Princesa Prometida") algunas...

    Director: David Leitch

    Género: Acción

    Actores: Zazie Beetz

  • Campeones (2018) HD 1080p Español

    2018
    Campeones (2018) HD 1080p Español

    0.0 2h 4m 2018

    Descargar Campeones (2018) HD 1080p Español, Mega, Google Drive, Torrent. Marco, un entrenador profesional...

    Director: Javier Fesser

    Género: Castellano

    Actores: Yiyo Alonso

Comentarios 2
  • Rxdrigx17 - 08 febrero, 2018

    Hola, esta ya la habían subido a la pagina una vez… ¿Esta es distinta? ¿Tiene más calidad?

    • Dracarys - 09 febrero, 2018

      Es un nuevo rip….