Guerra mundial Z (2013) UNRATED Full 1080p Latino

1.930 vistas
1 estrella2 estrellas3 estrellas4 estrellas5 estrellas (4 votos, promedio: 5,00 de 5)
Cargando…

Información de Guerra mundial Z (2013) UNRATED Full 1080p Latino

Datos de la película

  • Calidad: Full 1080p
  • Audio: Español Latino AC3 5.1 BLURAY - Ingles DTS 5.1 BLURAY
  • Subtitulos: Español Latino PGS - Ingles PGS
  • Resolución: 1920x1080p
  • Formato: MKV
  • Codec: H.264
  • Encoder: Dracarys
  • Mediainfo: Clic para Mostrar Datos Ver
  • Format                                   : Matroska
    Format version                           : Version 4 / Version 2
    File size                                : 4.70 GiB
    Duration                                 : 2 h 3 min
    Overall bit rate                         : 5 472 kb/s
    Movie name                               : CinemaniaHDD.net
    Encoded date                             : UTC 2018-08-09 02:04:13 / UTC 2018-07-28T10:49:10Z
    Writing application                      : mkvmerge v15.0.0 ('Duel with the Devil') 64-bit
    Writing library                          : libebml v1.3.5 + libmatroska v1.4.5 / Lavf57.7.2

    Video
    ID                                       : 1
    Format                                   : AVC
    Format/Info                              : Advanced Video Codec
    Format profile                           : High@L4.1
    Format settings                          : CABAC / 4 Ref Frames
    Format settings, CABAC                   : Yes
    Format settings, RefFrames               : 4 frames
    Codec ID                                 : V_MPEG4/ISO/AVC
    Duration                                 : 2 h 3 min
    Bit rate                                 : 3 214 kb/s
    Width                                    : 1 920 pixels
    Height                                   : 1 080 pixels
    Display aspect ratio                     : 16:9
    Frame rate mode                          : Constant
    Frame rate                               : 23.976 (24000/1001) FPS
    Color space                              : YUV
    Chroma subsampling                       : 4:2:0
    Bit depth                                : 8 bits
    Scan type                                : Progressive
    Bits/(Pixel*Frame)                       : 0.065
    Stream size                              : 2.76 GiB (59%)
    Title                                    : Guerra mundial Z (2013) Full 1080p Latino
    Writing library                          : x264 core 148 r2708 86b7198
    Encoding settings                        : cabac=1 / ref=4 / deblock=1:0:0 / analyse=0x3:0x133 / me=esa / subme=10 / psy=1 / psy_rd=1.00:0.00 / mixed_ref=1 / me_range=24 / chroma_me=1 / trellis=2 / 8x8dct=1 / cqm=0 / deadzone=21,11 / fast_pskip=1 / chroma_qp_offset=-2 / threads=34 / lookahead_threads=5 / sliced_threads=0 / nr=0 / decimate=1 / interlaced=0 / bluray_compat=0 / constrained_intra=0 / bframes=8 / b_pyramid=2 / b_adapt=2 / b_bias=0 / direct=3 / weightb=1 / open_gop=0 / weightp=2 / keyint=240 / keyint_min=24 / scenecut=40 / intra_refresh=0 / rc_lookahead=60 / rc=crf / mbtree=1 / crf=20.0 / qcomp=0.60 / qpmin=0 / qpmax=69 / qpstep=4 / vbv_maxrate=62500 / vbv_bufsize=78125 / crf_max=0.0 / nal_hrd=none / filler=0 / ip_ratio=1.40 / aq=1:1.00
    Language                                 : English
    Default                                  : Yes
    Forced                                   : No
    Color range                              : Limited
    Color primaries                          : BT.709
    Transfer characteristics                 : BT.709
    Matrix coefficients                      : BT.709
    Statistics Tags Issue                    : mkvmerge v15.0.0 ('Duel with the Devil') 64-bit 2018-08-09 02:04:13 / mkvmerge v15.0.0 ('Duel with the Devil') 64-bit 2018-08-09 02:04:13 / UTC 2018-07-28T10:49:10Z
    FromStats_BitRate                        : 3304338
    FromStats_Duration                       : 02:03:03.627000000
    FromStats_FrameCount                     : 177030
    FromStats_StreamSize                     : 3049750255

    Audio #1
    ID                                       : 2
    Format                                   : AC-3
    Format/Info                              : Audio Coding 3
    Format settings, Endianness              : Big
    Codec ID                                 : A_AC3
    Duration                                 : 2 h 3 min
    Bit rate mode                            : Constant
    Bit rate                                 : 640 kb/s
    Channel(s)                               : 6 channels
    Channel positions                        : Front: L C R, Side: L R, LFE
    Sampling rate                            : 48.0 kHz
    Frame rate                               : 31.250 FPS (1536 SPF)
    Bit depth                                : 16 bits
    Compression mode                         : Lossy
    Stream size                              : 563 MiB (12%)
    Language                                 : Spanish
    Service kind                             : Complete Main
    Default                                  : Yes
    Forced                                   : No
    Statistics Tags Issue                    : mkvmerge v15.0.0 ('Duel with the Devil') 64-bit 2018-08-09 02:04:13 / mkvmerge v15.0.0 ('Duel with the Devil') 64-bit 2018-08-09 02:04:13 / UTC 2018-07-28T10:49:10Z
    FromStats_BitRate                        : 640000
    FromStats_Duration                       : 02:03:03.680000000
    FromStats_FrameCount                     : 230740
    FromStats_StreamSize                     : 590694400

    Audio #2
    ID                                       : 3
    Format                                   : DTS
    Format/Info                              : Digital Theater Systems
    Mode                                     : 16
    Format settings, Endianness              : Big
    Codec ID                                 : A_DTS
    Duration                                 : 2 h 3 min
    Bit rate mode                            : Constant
    Bit rate                                 : 1 509 kb/s
    Channel(s)                               : 6 channels
    Channel positions                        : Front: L C R, Side: L R, LFE
    Sampling rate                            : 48.0 kHz
    Frame rate                               : 93.750 FPS (512 SPF)
    Bit depth                                : 24 bits
    Compression mode                         : Lossy
    Stream size                              : 1.30 GiB (28%)
    Language                                 : English
    Default                                  : No
    Forced                                   : No
    Statistics Tags Issue                    : mkvmerge v15.0.0 ('Duel with the Devil') 64-bit 2018-08-09 02:04:13 / mkvmerge v15.0.0 ('Duel with the Devil') 64-bit 2018-08-09 02:04:13 / UTC 2018-07-28T10:49:10Z
    FromStats_BitRate                        : 1508999
    FromStats_Duration                       : 02:03:03.659000000
    FromStats_FrameCount                     : 692218
    FromStats_StreamSize                     : 1392742616

    Text #1
    ID                                       : 4
    Format                                   : UTF-8
    Codec ID                                 : S_TEXT/UTF8
    Codec ID/Info                            : UTF-8 Plain Text
    Title                                    : Forzados
    Language                                 : Spanish
    Default                                  : Yes
    Forced                                   : Yes
    Statistics Tags Issue                    : mkvmerge v15.0.0 ('Duel with the Devil') 64-bit 2018-08-09 02:04:13 / mkvmerge v15.0.0 ('Duel with the Devil') 64-bit 2018-08-09 02:04:13 / UTC 2018-07-28T10:49:10Z
    FromStats_BitRate                        : 0
    FromStats_Duration                       : 01:49:28.311000000
    FromStats_FrameCount                     : 18
    FromStats_StreamSize                     : 567

    Text #2
    ID                                       : 5
    Format                                   : PGS
    Muxing mode                              : zlib
    Codec ID                                 : S_HDMV/PGS
    Codec ID/Info                            : Picture based subtitle format used on BDs/HD-DVDs
    Language                                 : English
    Default                                  : No
    Forced                                   : No
    Statistics Tags Issue                    : mkvmerge v15.0.0 ('Duel with the Devil') 64-bit 2018-08-09 02:04:13 / mkvmerge v15.0.0 ('Duel with the Devil') 64-bit 2018-08-09 02:04:13 / UTC 2018-07-28T10:49:10Z
    FromStats_BitRate                        : 27923
    FromStats_Duration                       : 01:54:03.378000000
    FromStats_FrameCount                     : 2496
    FromStats_StreamSize                     : 23886705

    Text #3
    ID                                       : 6
    Format                                   : PGS
    Muxing mode                              : zlib
    Codec ID                                 : S_HDMV/PGS
    Codec ID/Info                            : Picture based subtitle format used on BDs/HD-DVDs
    Language                                 : Spanish
    Default                                  : No
    Forced                                   : No
    Statistics Tags Issue                    : mkvmerge v15.0.0 ('Duel with the Devil') 64-bit 2018-08-09 02:04:13 / mkvmerge v15.0.0 ('Duel with the Devil') 64-bit 2018-08-09 02:04:13 / UTC 2018-07-28T10:49:10Z
    FromStats_BitRate                        : 24606
    FromStats_Duration                       : 01:54:03.378000000
    FromStats_FrameCount                     : 2404
    FromStats_StreamSize                     : 21048816

    Menu
    00:00:00.000                             : :Chapter 1
    00:05:05.180                             : :Chapter 2
    00:13:54.000                             : :Chapter 3
    00:22:43.195                             : :Chapter 4
    00:29:46.034                             : :Chapter 5
    00:35:21.494                             : :Chapter 6
    00:42:23.458                             : :Chapter 7
    00:52:37.946                             : :Chapter 8
    00:58:53.822                             : :Chapter 9
    01:07:18.868                             : :Chapter 10
    01:15:11.757                             : :Chapter 11
    01:24:02.037                             : :Chapter 12
    01:29:08.802                             : :Chapter 13
    01:34:50.518                             : :Chapter 14
    01:43:45.469                             : :Chapter 15
    01:52:17.981                             : :Chapter 16
    01:55:51.653                             : :Chapter 17

  • Peso: 4.70 GiB

Sinopsis

Cuando el mundo comienza a ser invadido por una legión de muertos vivientes, Gerry Lane, un experto investigador de las Naciones Unidas, intentará evitar el fin de la civilización en una carrera contra el tiempo y el destino. La destrucción a la que se ve sometida la raza humana lo lleva a recorrer el mundo entero buscando la solución para frenar esa horrible epidemia.

Ficha técnica

Video trailer de la película

Enlaces de descarga

Rip de Bluray

Descargar Guerra mundial Z (2013) UNRATED Full 1080p Latino




Aportes de DPeliculasHDmega la pass es:dpeliculashdmega.org Aportes de CinemaniaHD la pass es:cinemaniahdd.com

Películas relacionadas

  • Unbroken Path to Redemption (2018) 1080p Latino

    2018
    Unbroken Path to Redemption (2018) 1080p Latino

    0.0 1h 38m 2018

    Zamperini regresa a California donde se casó a regañadientes con Cynthia Applewhite mientras luchaba...

    Director: Harold Cronk

    Género: Drama

    Actores: Will Graham

  • Matar o morir (2018) 1080p Subtitulado

    2018
    Matar o morir (2018) 1080p Subtitulado

    5.0 1h 41m 2018

    Descargar Matar o morir [Peppermint] (2018) 1080p Subtitulado, Mega, Google Drive. LRiley North (Jennifer...

    Director: Pierre Morel

    Género: Acción

    Actores: YaYa Gosselin

  • Ni en tus sueños (2010) Full 1080p Latino

    2010
    Ni en tus sueños (2010) Full 1080p Latino

    0.0 1h 44m 2010

    Descargar Ni en tus sueños (2010) Full 1080p Latino, Mega, Google Drive. Kirk (Jay Baruchel, "Tropic...

    Director: Richard L. Fox

    Género: Comedia

    Actores: Yan Xi

  • La Chica de La Capa Roja (2011) Full 1080p Latino

    2011
    La Chica de La Capa Roja (2011) Full 1080p Latino

    4.7 1h 40m 2011

    Descargar La Chica de La Capa Roja (2011) Full 1080p Latino, Mega, Google Drive. La joven Valerie se...

    Director: Kimi Webber

    Género: Fantasía

    Actores: Virginia Madsen

Comentarios 3
  • Anibal - 10 agosto, 2018

    gracias

  • ocpgaiden - 09 agosto, 2018

    gracias por esta magnifica pelicula, saludos

  • VANE BR - 09 agosto, 2018

    Por fin. Gracias 😉