×

¿Problemas para descargar con Mozilla, EDGE? Deshabilita la opción "Abrir vinculos en una pestaña nueva" tal como lo muestra ésta imagen.

Ghost la sombra del amor (1990) REMUX 1080p Latino – CMHDD

488 vistas

Información de Ghost la sombra del amor (1990) REMUX 1080p Latino – CMHDD

Datos de la película

  • Calidad: Full 1080p
  • Audio: Español Latino AC3 5.1 BLURAY - Ingles AC3 5.1 BLURAY
  • Subtitulos: Español Latino SRT
  • Resolución: 1920x1080p
  • Formato: MKV
  • Codec: H.264
  • Encoder: Dracarys
  • Mediainfo: Clic para Mostrar Datos Ver
  • Format                      : Matroska
    Format version              : Version 4
    File size                   : 32.3 GiB
    Duration                    : 2 h 6 min
    Overall bit rate mode       : Variable
    Overall bit rate            : 36.5 Mb/s
    Movie name                  : Ghost la sombra del amor (1990) REMUX 1080p Latino - CMHDD
    Encoded date                : UTC 2020-06-16 03:18:57
    Writing application         : mkvmerge v46.0.0 ('No Deeper Escape') 64-bit
    Writing library             : libebml v1.3.10 + libmatroska v1.5.2

    Video
    ID                          : 1
    Format                      : AVC
    Format/Info                 : Advanced Video Codec
    Format profile              : High@L4.1
    Format settings             : CABAC / 2 Ref Frames
    Format settings, CABAC      : Yes
    Format settings, Reference  : 2 frames
    Codec ID                    : V_MPEG4/ISO/AVC
    Duration                    : 2 h 6 min
    Bit rate mode               : Variable
    Bit rate                    : 31.9 Mb/s
    Width                       : 1 920 pixels
    Height                      : 1 080 pixels
    Display aspect ratio        : 16:9
    Frame rate mode             : Constant
    Frame rate                  : 23.976 (24000/1001) FPS
    Color space                 : YUV
    Chroma subsampling          : 4:2:0
    Bit depth                   : 8 bits
    Scan type                   : Progressive
    Bits/(Pixel*Frame)          : 0.642
    Stream size                 : 28.3 GiB (88%)
    Default                     : Yes
    Forced                      : No

    Audio #1
    ID                          : 2
    Format                      : AC-3
    Format/Info                 : Audio Coding 3
    Commercial name             : Dolby Digital
    Codec ID                    : A_AC3
    Duration                    : 2 h 6 min
    Bit rate mode               : Constant
    Bit rate                    : 640 kb/s
    Channel(s)                  : 6 channels
    Channel layout              : L R C LFE Ls Rs
    Sampling rate               : 48.0 kHz
    Frame rate                  : 31.250 FPS (1536 SPF)
    Compression mode            : Lossy
    Stream size                 : 580 MiB (2%)
    Language                    : Spanish
    Service kind                : Complete Main
    Default                     : Yes
    Forced                      : No

    Audio #2
    ID                          : 3
    Format                      : MLP FBA
    Format/Info                 : Meridian Lossless Packing FBA
    Commercial name             : Dolby TrueHD
    Codec ID                    : A_TRUEHD
    Duration                    : 2 h 6 min
    Bit rate mode               : Variable
    Bit rate                    : 3 176 kb/s
    Maximum bit rate            : 4 929 kb/s
    Channel(s)                  : 6 channels
    Channel layout              : L R C LFE Ls Rs
    Sampling rate               : 48.0 kHz
    Frame rate                  : 1 200.000 FPS (40 SPF)
    Compression mode            : Lossless
    Stream size                 : 2.81 GiB (9%)
    Language                    : English
    Default                     : No
    Forced                      : No

    Audio #3
    ID                          : 4
    Format                      : AC-3
    Format/Info                 : Audio Coding 3
    Commercial name             : Dolby Digital
    Codec ID                    : A_AC3
    Duration                    : 2 h 6 min
    Bit rate mode               : Constant
    Bit rate                    : 640 kb/s
    Channel(s)                  : 6 channels
    Channel layout              : L R C LFE Ls Rs
    Sampling rate               : 48.0 kHz
    Frame rate                  : 31.250 FPS (1536 SPF)
    Compression mode            : Lossy
    Stream size                 : 580 MiB (2%)
    Language                    : English
    Service kind                : Complete Main
    Default                     : No
    Forced                      : No

    Text #1
    ID                          : 5
    Format                      : PGS
    Muxing mode                 : zlib
    Codec ID                    : S_HDMV/PGS
    Codec ID/Info               : Picture based subtitle format used on BDs/HD-DVDs
    Duration                    : 2 h 1 min
    Bit rate                    : 31.7 kb/s
    Count of elements           : 2870
    Stream size                 : 27.5 MiB (0%)
    Language                    : Spanish
    Default                     : No
    Forced                      : No

    Text #2
    ID                          : 6
    Format                      : UTF-8
    Codec ID                    : S_TEXT/UTF8
    Codec ID/Info               : UTF-8 Plain Text
    Duration                    : 2 h 1 min
    Bit rate                    : 49 b/s
    Count of elements           : 1435
    Stream size                 : 44.2 KiB (0%)
    Language                    : Spanish
    Default                     : No
    Forced                      : No

  • Peso: 32.3 GiB

Sinopsis

Una pareja de enamorados ve truncada su felicidad cuando él es asesinado por un ladrón. La necesidad de salvar la vida a la chica hace que él permanezca en la Tierra en forma de fantasma, e intente advertirla del peligro que corre. Su único medio de comunicación es una alocada vidente.

 

Incluye Ingles: TrueHD 5.1

Ficha técnica

Video trailer de la película

Enlaces de descarga

Rip de Bluray

Descargar Ghost la sombra del amor (1990) REMUX 1080p Latino – CMHDD




Aportes de DPeliculasHDmega la pass es:dpeliculashdmega.org Aportes de CinemaniaHD la pass es:cinemaniahdd.com
Guardado en : Drama , Fantasía , Misterio , Remux , Romance , Suspenso

Películas relacionadas

descargar Ghost la sombra del amor (1990) REMUX 1080p Latino – CMHDD Full 1080p 1080p gratis, Ghost la sombra del amor (1990) REMUX 1080p Latino – CMHDD Full 1080p mega 1 link, Ghost la sombra del amor (1990) REMUX 1080p Latino – CMHDD Full 1080p pelicula completa, descargar Ghost la sombra del amor (1990) REMUX 1080p Latino – CMHDD Full 1080p gratis en mega.

Ghost la sombra del amor (1990) REMUX 1080p Latino – CMHDD pelicula full hd, Ghost la sombra del amor (1990) REMUX 1080p Latino – CMHDD mega latino, Ghost la sombra del amor (1990) REMUX 1080p Latino – CMHDD 4k latino, Ghost la sombra del amor (1990) REMUX 1080p Latino – CMHDD pelicula completa, Ghost la sombra del amor (1990) REMUX 1080p Latino – CMHDD descargar gratis, descargar Ghost la sombra del amor (1990) REMUX 1080p Latino – CMHDD pelicula latino, Ghost la sombra del amor (1990) REMUX 1080p Latino – CMHDD 1 link mega, Ghost la sombra del amor (1990) REMUX 1080p Latino – CMHDD 1 link google drive, Ghost la sombra del amor (1990) REMUX 1080p Latino – CMHDD hd 1080p latino.
Comentarios 0