×

¿Problemas para descargar con Mozilla, EDGE? Deshabilita la opción "Abrir vinculos en una pestaña nueva" tal como lo muestra ésta imagen.

Viernes 13 (2009) REMUX 1080p Latino

302 vistas

Información de Viernes 13 (2009) REMUX 1080p Latino

Datos de la película

  • Calidad: Full 1080p
  • Audio: Se especifica abajo de la Sinopsis
  • Subtitulos: Español Latino PGS - Ingles PGS
  • Resolución: 1920x1080p
  • Formato: MKV
  • Codec: H.264
  • Encoder: CinefiloCool
  • Mediainfo: Clic para Mostrar Datos Ver
  • Viernes 13 (2009) REMUX 1080p Latino-CMHDD.mkv
    Format                      : Matroska
    Format version              : Version 4
    File size                   : 24.1 GiB
    Duration                    : 1 h 37 min
    Overall bit rate mode       : Variable
    Overall bit rate            : 35.6 Mb/s
    Movie name                  : Friday The 13th (2009) CinemaniaHDD.Net
    Encoded date                : UTC 2020-10-23 02:58:01
    Writing application         : mkvmerge v51.0.0 ('I Wish') 64-bit
    Writing library             : libebml v1.4.0 + libmatroska v1.6.2
    Attachments                 : CINEMANIAHD.png

    Video
    ID                          : 1
    Format                      : AVC
    Format/Info                 : Advanced Video Codec
    Format profile              : High@L4.1
    Format settings             : CABAC / 2 Ref Frames
    Format settings, CABAC      : Yes
    Format settings, Reference  : 2 frames
    Codec ID                    : V_MPEG4/ISO/AVC
    Duration                    : 1 h 37 min
    Bit rate mode               : Variable
    Bit rate                    : 30.9 Mb/s
    Width                       : 1 920 pixels
    Height                      : 1 080 pixels
    Display aspect ratio        : 16:9
    Frame rate mode             : Constant
    Frame rate                  : 23.976 (24000/1001) FPS
    Color space                 : YUV
    Chroma subsampling          : 4:2:0
    Bit depth                   : 8 bits
    Scan type                   : Progressive
    Bits/(Pixel*Frame)          : 0.622
    Stream size                 : 21.0 GiB (87%)
    Title                       : REMUX 1080p [CinemaniaHDD]
    Language                    : English
    Default                     : Yes
    Forced                      : No

    Audio #1
    ID                          : 2
    Format                      : AC-3
    Format/Info                 : Audio Coding 3
    Commercial name             : Dolby Digital
    Codec ID                    : A_AC3
    Duration                    : 1 h 37 min
    Bit rate mode               : Constant
    Bit rate                    : 640 kb/s
    Channel(s)                  : 6 channels
    Channel layout              : L R C LFE Ls Rs
    Sampling rate               : 48.0 kHz
    Frame rate                  : 31.250 FPS (1536 SPF)
    Compression mode            : Lossy
    Stream size                 : 445 MiB (2%)
    Title                       : Español Latino [CinemaniaHDD]
    Language                    : Spanish
    Service kind                : Complete Main
    Default                     : Yes
    Forced                      : No

    Audio #2
    ID                          : 3
    Format                      : MLP FBA
    Format/Info                 : Meridian Lossless Packing FBA
    Commercial name             : Dolby TrueHD
    Codec ID                    : A_TRUEHD
    Duration                    : 1 h 37 min
    Bit rate mode               : Variable
    Bit rate                    : 3 250 kb/s
    Maximum bit rate            : 5 247 kb/s
    Channel(s)                  : 6 channels
    Channel layout              : L R C LFE Ls Rs
    Sampling rate               : 48.0 kHz
    Frame rate                  : 1 200.000 FPS (40 SPF)
    Compression mode            : Lossless
    Stream size                 : 2.21 GiB (9%)
    Title                       : Ingles [CinemaniaHDD]
    Language                    : English
    Default                     : No
    Forced                      : No

    Audio #3
    ID                          : 4
    Format                      : AC-3
    Format/Info                 : Audio Coding 3
    Commercial name             : Dolby Digital
    Codec ID                    : A_AC3
    Duration                    : 1 h 37 min
    Bit rate mode               : Constant
    Bit rate                    : 640 kb/s
    Channel(s)                  : 6 channels
    Channel layout              : L R C LFE Ls Rs
    Sampling rate               : 48.0 kHz
    Frame rate                  : 31.250 FPS (1536 SPF)
    Compression mode            : Lossy
    Stream size                 : 445 MiB (2%)
    Title                       : Ingles AC3 [CinemaniaHDD]
    Language                    : English
    Service kind                : Complete Main
    Default                     : No
    Forced                      : No

    Text #1
    ID                          : 5
    Format                      : PGS
    Muxing mode                 : zlib
    Codec ID                    : S_HDMV/PGS
    Codec ID/Info               : Picture based subtitle format used on BDs/HD-DVDs
    Duration                    : 1 h 36 min
    Bit rate                    : 27.7 kb/s
    Count of elements           : 1732
    Stream size                 : 19.0 MiB (0%)
    Title                       : Español-PGS [CinemaniaHDD]
    Language                    : Spanish
    Default                     : No
    Forced                      : No

    Text #2
    ID                          : 6
    Format                      : PGS
    Muxing mode                 : zlib
    Codec ID                    : S_HDMV/PGS
    Codec ID/Info               : Picture based subtitle format used on BDs/HD-DVDs
    Duration                    : 1 h 28 min
    Bit rate                    : 27.2 kb/s
    Count of elements           : 1750
    Stream size                 : 17.2 MiB (0%)
    Title                       : Ingles-PGS [CinemaniaHDD]
    Language                    : English
    Default                     : No
    Forced                      : No

    Text #3
    ID                          : 7
    Format                      : UTF-8
    Codec ID                    : S_TEXT/UTF8
    Codec ID/Info               : UTF-8 Plain Text
    Duration                    : 1 h 36 min
    Bit rate                    : 0 b/s
    Count of elements           : 10
    Stream size                 : 273 Bytes (0%)
    Title                       : Forzados-SRT [CinemaniaHDD]
    Language                    : Spanish
    Default                     : Yes
    Forced                      : No

    Text #4
    ID                          : 8
    Format                      : UTF-8
    Codec ID                    : S_TEXT/UTF8
    Codec ID/Info               : UTF-8 Plain Text
    Duration                    : 1 h 36 min
    Bit rate                    : 34 b/s
    Count of elements           : 866
    Stream size                 : 24.2 KiB (0%)
    Title                       : Español-SRT [CinemaniaHDD]
    Language                    : Spanish
    Default                     : No
    Forced                      : No

    Menu
    00:00:00.000                : en:Chapter 1
    00:03:25.204                : en:Chapter 2
    00:08:10.615                : en:Chapter 3
    00:12:01.386                : en:Chapter 4
    00:15:12.745                : en:Chapter 5
    00:19:16.238                : en:Chapter 6
    00:23:15.727                : en:Chapter 7
    00:28:08.228                : en:Chapter 8
    00:31:59.459                : en:Chapter 9
    00:36:36.985                : en:Chapter 10
    00:38:56.291                : en:Chapter 11
    00:42:46.230                : en:Chapter 12
    00:48:00.626                : en:Chapter 13
    00:52:18.467                : en:Chapter 14
    00:56:33.514                : en:Chapter 15
    01:00:21.576                : en:Chapter 16
    01:03:09.452                : en:Chapter 17
    01:05:30.342                : en:Chapter 18
    01:09:49.350                : en:Chapter 19
    01:13:26.734                : en:Chapter 20
    01:16:17.780                : en:Chapter 21
    01:18:20.153                : en:Chapter 22
    01:22:23.604                : en:Chapter 23
    01:26:05.827                : en:Chapter 24
    01:30:17.161                : en:Chapter 25

  • Peso: 24.1 GiB

Sinopsis

Descargar Viernes 13 (2009) REMUX 1080p Latino. Remake del clásico film de terror, dirigido en 1980 por Sean S. Cunningham. Buscando a su hermana desaparecida, Clay se dirige al espeluznante bosque del legendario Crystal Lake, donde tropieza con los viejos y decrépitos restos de una cabaña que yace detrás de unos árboles cubiertos por denso musgo. Y esto no es lo único que se esconde entre la maleza… En contra del consejo de la policía y las advertencias de los habitantes de la zona, Clay continúa con su búsqueda, ayudado por una joven mujer que ha conocido entre un grupo de jóvenes estudiantes preparados para pasar un emocionante fin de semana. Sin embargo, ellos están a punto de encontrar algo más que no habían tenido en cuenta. Lo que menos se imaginan es que han entrado en el dominio de uno de los más terroríficos espectros de la historia del cine americano: el infame asesino que caza en Crystal Lake armado con una sierra eléctrica.

Audio Español Latino AC3 5.1 Bluray – Ingles TrueHD + Core AC3 5.1 Bluray

Ficha técnica

  • Titulo original: Friday the 13th
  • Fecha de lanzamiento: 11-02-2009 (United States of America)
  • Director: Marcus Nispel
  • Género: Remux, Terror

Video trailer de la película

Enlaces de descarga

Rip de Bluray

Descargar Viernes 13 (2009) REMUX 1080p Latino




Aportes de DPeliculasHDmega la pass es:dpeliculashdmega.org Aportes de CinemaniaHD la pass es:cinemaniahdd.com
Guardado en : Remux , Terror

Películas relacionadas

  • Wire Room (2022) REMUX 1080p Latino

    Wire Room (2022) REMUX 1080p Latino

    2022
    Wire Room (2022) REMUX 1080p Latino

    1h 37m 2022

    Descargar Wire Room (2022) REMUX 1080p Latino. Mientras está de servicio en la sala de cables, un agente...

    Director: Matt Eskandari

    Género: Acción

    Actores: Texas Battle

  • Alarido (2022) HD 1080p Latino

    Alarido (2022) HD 1080p Latino

    2022
    Alarido (2022) HD 1080p Latino

    1h 29m 2022

    Descargar Alarido (2022) HD 1080p Latino. Una joven madre soltera es cautiva junto con sus dos hijos...

    Director: D.J. Caruso

    Género: HD 1080p

    Actores: Vincent Gallo

  • Alarido (2022) PLACEBO Full HD 1080p Latino

    Alarido (2022) PLACEBO Full HD 1080p Latino

    2022
    Alarido (2022) PLACEBO Full HD 1080p Latino

    1h 29m 2022

    Descargar Alarido (2022) PLACEBO Full HD 1080p Latino. Una joven madre soltera es cautiva junto con sus...

    Director: D.J. Caruso

    Género: FULL 1080p Plateadas

    Actores: Vincent Gallo

  • Alarido (2022) REMUX 1080p Latino

    Alarido (2022) REMUX 1080p Latino

    2022
    Alarido (2022) REMUX 1080p Latino

    1h 29m 2022

    Descargar Alarido (2022) REMUX 1080p Latino. Una joven madre soltera es cautiva junto con sus dos hijos...

    Director: D.J. Caruso

    Género: Remux

    Actores: Vincent Gallo

descargar Viernes 13 (2009) REMUX 1080p Latino Full 1080p 1080p gratis, Viernes 13 (2009) REMUX 1080p Latino Full 1080p mega 1 link, Viernes 13 (2009) REMUX 1080p Latino Full 1080p pelicula completa, descargar Viernes 13 (2009) REMUX 1080p Latino Full 1080p gratis en mega.

Viernes 13 (2009) REMUX 1080p Latino pelicula full hd, Viernes 13 (2009) REMUX 1080p Latino mega latino, Viernes 13 (2009) REMUX 1080p Latino 4k latino, Viernes 13 (2009) REMUX 1080p Latino pelicula completa, Viernes 13 (2009) REMUX 1080p Latino descargar gratis, descargar Viernes 13 (2009) REMUX 1080p Latino pelicula latino, Viernes 13 (2009) REMUX 1080p Latino 1 link mega, Viernes 13 (2009) REMUX 1080p Latino 1 link google drive, Viernes 13 (2009) REMUX 1080p Latino hd 1080p latino.
Comentarios 1
  • ocpgaiden - 23 octubre, 2020

    Gracias por viernes 13 remake remux, saludos