×

¿Problemas para descargar con Mozilla, EDGE? Deshabilita la opción "Abrir vinculos en una pestaña nueva" tal como lo muestra ésta imagen.

El lobo de Wall Street (2013) Full HD 1080p Latino – CMHDD

666 vistas

Información de El lobo de Wall Street (2013) Full HD 1080p Latino – CMHDD

Datos de la película

  • Calidad: Full 1080p
  • Audio: Español Latino AC3 5.1 BLURAY - Ingles DTS 5.1 BLURAY
  • Subtitulos: Español Latino SRT- FORZADOS SRT
  • Resolución: 1920x1080p
  • Formato: MKV
  • Codec: H.264
  • Encoder: Dracarys
  • Mediainfo: Clic para Mostrar Datos Ver
  • Format                      : Matroska
    Format version              : Version 4
    File size                   : 11.9 GiB
    Duration                    : 2 h 59 min
    Overall bit rate mode       : Variable
    Overall bit rate            : 9 446 kb/s
    Movie name                  : El lobo de Wall Street (2013) Full HD 1080p Latino - CMHDD
    Encoded date                : UTC 2020-11-23 01:15:30
    Writing application         : mkvmerge v51.0.0 ('I Wish') 64-bit
    Writing library             : libebml v1.4.0 + libmatroska v1.6.2

    Video
    ID                          : 1
    Format                      : AVC
    Format/Info                 : Advanced Video Codec
    Format profile              : High@L4.1
    Format settings             : CABAC / 4 Ref Frames
    Format settings, CABAC      : Yes
    Format settings, Reference  : 4 frames
    Codec ID                    : V_MPEG4/ISO/AVC
    Duration                    : 2 h 59 min
    Bit rate                    : 5 387 kb/s
    Width                       : 1 920 pixels
    Height                      : 1 080 pixels
    Display aspect ratio        : 16:9
    Frame rate mode             : Constant
    Frame rate                  : 23.976 (24000/1001) FPS
    Color space                 : YUV
    Chroma subsampling          : 4:2:0
    Bit depth                   : 8 bits
    Scan type                   : Progressive
    Bits/(Pixel*Frame)          : 0.108
    Stream size                 : 6.77 GiB (57%)
    Writing library             : x264 core 157 r2935 545de2f
    Encoding settings           : cabac=1 / ref=4 / deblock=1:0:0 / analyse=0x3:0x133 / me=tesa / subme=11 / psy=1 / psy_rd=1.00:0.00 / mixed_ref=1 / me_range=24 / chroma_me=1 / trellis=2 / 8x8dct=1 / cqm=0 / deadzone=21,11 / fast_pskip=0 / chroma_qp_offset=-2 / threads=24 / lookahead_threads=6 / sliced_threads=0 / nr=0 / decimate=1 / interlaced=0 / bluray_compat=0 / constrained_intra=0 / bframes=16 / b_pyramid=2 / b_adapt=2 / b_bias=0 / direct=3 / weightb=1 / open_gop=0 / weightp=2 / keyint=240 / keyint_min=24 / scenecut=40 / intra_refresh=0 / rc_lookahead=60 / rc=crf / mbtree=1 / crf=20.0 / qcomp=0.60 / qpmin=0 / qpmax=69 / qpstep=4 / vbv_maxrate=62500 / vbv_bufsize=78125 / crf_max=0.0 / nal_hrd=none / filler=0 / ip_ratio=1.40 / aq=1:1.00
    Default                     : Yes
    Forced                      : No
    Color range                 : Limited
    Color primaries             : BT.709
    Transfer characteristics    : BT.709
    Matrix coefficients         : BT.709

    Audio #1
    ID                          : 2
    Format                      : AC-3
    Format/Info                 : Audio Coding 3
    Commercial name             : Dolby Digital
    Codec ID                    : A_AC3
    Duration                    : 2 h 59 min
    Bit rate mode               : Constant
    Bit rate                    : 640 kb/s
    Channel(s)                  : 6 channels
    Channel layout              : L R C LFE Ls Rs
    Sampling rate               : 48.0 kHz
    Frame rate                  : 31.250 FPS (1536 SPF)
    Compression mode            : Lossy
    Stream size                 : 823 MiB (7%)
    Language                    : Spanish
    Service kind                : Complete Main
    Default                     : Yes
    Forced                      : No

    Audio #2
    ID                          : 3
    Format                      : DTS XLL
    Format/Info                 : Digital Theater Systems
    Commercial name             : DTS-HD Master Audio
    Codec ID                    : A_DTS
    Duration                    : 2 h 59 min
    Bit rate mode               : Variable
    Bit rate                    : 3 400 kb/s
    Channel(s)                  : 6 channels
    Channel layout              : C L R Ls Rs LFE
    Sampling rate               : 48.0 kHz
    Frame rate                  : 93.750 FPS (512 SPF)
    Bit depth                   : 24 bits
    Compression mode            : Lossless
    Stream size                 : 4.27 GiB (36%)
    Language                    : English
    Default                     : No
    Forced                      : No

    Text #1
    ID                          : 4
    Format                      : PGS
    Muxing mode                 : zlib
    Codec ID                    : S_HDMV/PGS
    Codec ID/Info               : Picture based subtitle format used on BDs/HD-DVDs
    Duration                    : 2 h 52 min
    Bit rate                    : 47.6 kb/s
    Count of elements           : 6490
    Stream size                 : 58.7 MiB (0%)
    Language                    : Spanish
    Default                     : No
    Forced                      : No

    Text #2
    ID                          : 5
    Format                      : UTF-8
    Codec ID                    : S_TEXT/UTF8
    Codec ID/Info               : UTF-8 Plain Text
    Duration                    : 2 h 49 min
    Bit rate                    : 0 b/s
    Count of elements           : 9
    Stream size                 : 218 Bytes (0%)
    Language                    : Spanish
    Default                     : Yes
    Forced                      : No

    Menu
    00:00:00.000                : :Chapter 1
    00:07:55.934                : :Chapter 2
    00:14:17.857                : :Chapter 3
    00:21:31.415                : :Chapter 4
    00:32:08.093                : :Chapter 5
    00:40:14.495                : :Chapter 6
    00:48:33.577                : :Chapter 7
    00:55:21.443                : :Chapter 8
    01:01:56.046                : :Chapter 9
    01:07:00.475                : :Chapter 10
    01:11:28.910                : :Chapter 11
    01:19:49.868                : :Chapter 12
    01:29:06.883                : :Chapter 13
    01:37:47.403                : :Chapter 14
    01:45:11.931                : :Chapter 15
    01:54:39.998                : :Chapter 16
    02:03:20.184                : :Chapter 17
    02:07:28.015                : :Chapter 18
    02:17:12.850                : :Chapter 19
    02:25:25.467                : :Chapter 20
    02:32:08.620                : :Chapter 21
    02:36:38.723                : :Chapter 22
    02:44:19.266                : :Chapter 23
    02:53:04.291                : :Chapter 24

  • Peso: 11.9 GiB

Sinopsis

Película basada en hechos reales del corredor de bolsa neoyorquino Jordan Belfort. A mediados de los años 80, Belfort era un joven honrado que perseguía el sueño americano, pero pronto en la agencia de valores aprendió que lo más importante no era hacer ganar a sus clientes, sino ser ambicioso y ganar una buena comisión. Su enorme éxito y fortuna le valió el mote de «El lobo de Wall Street». Dinero. Poder. Mujeres. Drogas. Las tentaciones abundaban y el temor a la ley era irrelevante. Jordan y su manada de lobos consideraban que la discreción era una cualidad anticuada; nunca se conformaban con lo que tenían.

Ficha técnica

Video trailer de la película

Enlaces de descarga

Rip de Bluray

Descargar El lobo de Wall Street (2013) Full HD 1080p Latino – CMHDD




Aportes de DPeliculasHDmega la pass es:dpeliculashdmega.org Aportes de CinemaniaHD la pass es:cinemaniahdd.com
Guardado en : Comedia , Crimen , Drama

Películas relacionadas

descargar El lobo de Wall Street (2013) Full HD 1080p Latino – CMHDD Full 1080p 1080p gratis, El lobo de Wall Street (2013) Full HD 1080p Latino – CMHDD Full 1080p mega 1 link, El lobo de Wall Street (2013) Full HD 1080p Latino – CMHDD Full 1080p pelicula completa, descargar El lobo de Wall Street (2013) Full HD 1080p Latino – CMHDD Full 1080p gratis en mega.

El lobo de Wall Street (2013) Full HD 1080p Latino – CMHDD pelicula full hd, El lobo de Wall Street (2013) Full HD 1080p Latino – CMHDD mega latino, El lobo de Wall Street (2013) Full HD 1080p Latino – CMHDD 4k latino, El lobo de Wall Street (2013) Full HD 1080p Latino – CMHDD pelicula completa, El lobo de Wall Street (2013) Full HD 1080p Latino – CMHDD descargar gratis, descargar El lobo de Wall Street (2013) Full HD 1080p Latino – CMHDD pelicula latino, El lobo de Wall Street (2013) Full HD 1080p Latino – CMHDD 1 link mega, El lobo de Wall Street (2013) Full HD 1080p Latino – CMHDD 1 link google drive, El lobo de Wall Street (2013) Full HD 1080p Latino – CMHDD hd 1080p latino.
Comentarios 0