×

¿Problemas para descargar con Mozilla, EDGE? Deshabilita la opción "Abrir vinculos en una pestaña nueva" tal como lo muestra ésta imagen.

El Callejón de Las Almas Perdidas (2021) REMUX 4K UHD HDR Latino

1.398 vistas

Información de El Callejón de Las Almas Perdidas (2021) REMUX 4K UHD HDR Latino

Datos de la película

  • Calidad: 4K HDR
  • Audio: Se especifica abajo de la Sinopsis
  • Subtitulos: Español Latino PGS - Ingles PGS
  • Resolución: 3840x2160p
  • Formato: MKV
  • Codec: HEVC
  • Encoder: Melkor
  • Mediainfo: Clic para Mostrar Datos Ver
  • Nightmare Alley (2021) REMUX UHD HDR Latino.mkv
    Format                      : Matroska
    Format version              : Version 4
    File size                   : 54.8 GiB
    Duration                    : 2 h 30 min
    Overall bit rate mode       : Variable
    Overall bit rate            : 52.3 Mb/s
    Movie name                  : Nightmare Alley (2021) CinemaniaHDD.Net
    Encoded date                : UTC 2022-03-16 01:28:20
    Writing application         : mkvmerge v56.1.0 ('My Friend') 64-bit
    Writing library             : libebml v1.4.2 + libmatroska v1.6.4
    Attachments                 : CINEMANIAHD.png

    Video
    ID                          : 1
    ID in the original source m : 4113 (0x1011)
    Format                      : HEVC
    Format/Info                 : High Efficiency Video Coding
    Format profile              : Main 10@L5.1@High
    HDR format                  : SMPTE ST 2086, HDR10 compatible
    Codec ID                    : V_MPEGH/ISO/HEVC
    Duration                    : 2 h 30 min
    Bit rate                    : 46.4 Mb/s
    Width                       : 3 840 pixels
    Height                      : 2 160 pixels
    Display aspect ratio        : 16:9
    Frame rate mode             : Constant
    Frame rate                  : 23.976 (24000/1001) FPS
    Color space                 : YUV
    Chroma subsampling          : 4:2:0 (Type 2)
    Bit depth                   : 10 bits
    Bits/(Pixel*Frame)          : 0.233
    Stream size                 : 48.6 GiB (89%)
    Title                       : REMUX 2160p HDR [Bluray]
    Default                     : Yes
    Forced                      : Yes
    Color range                 : Limited
    Color primaries             : BT.2020
    Transfer characteristics    : PQ
    Matrix coefficients         : BT.2020 non-constant
    Mastering display color pri : Display P3
    Mastering display luminance : min: 0.0050 cd/m2, max: 1000 cd/m2
    Original source medium      : Blu-ray

    Audio #1
    ID                          : 2
    ID in the original source m : 4355 (0x1103)
    Format                      : AC-3
    Format/Info                 : Audio Coding 3
    Commercial name             : Dolby Digital
    Codec ID                    : A_AC3
    Duration                    : 2 h 30 min
    Bit rate mode               : Constant
    Bit rate                    : 640 kb/s
    Channel(s)                  : 6 channels
    Channel layout              : L R C LFE Ls Rs
    Sampling rate               : 48.0 kHz
    Frame rate                  : 31.250 FPS (1536 SPF)
    Compression mode            : Lossy
    Stream size                 : 687 MiB (1%)
    Title                       : Español Latino [CinemaniaHDD]
    Language                    : Spanish
    Service kind                : Complete Main
    Default                     : Yes
    Forced                      : Yes
    Original source medium      : Blu-ray

    Audio #2
    ID                          : 3
    ID in the original source m : 4352 (0x1100)
    Format                      : MLP FBA 16-ch
    Format/Info                 : Meridian Lossless Packing FBA with 16-channel presentation
    Commercial name             : Dolby TrueHD with Dolby Atmos
    Codec ID                    : A_TRUEHD
    Duration                    : 2 h 30 min
    Bit rate mode               : Variable
    Bit rate                    : 4 519 kb/s
    Maximum bit rate            : 7 362 kb/s
    Channel(s)                  : 8 channels
    Channel layout              : L R C LFE Ls Rs Lb Rb
    Sampling rate               : 48.0 kHz
    Frame rate                  : 1 200.000 FPS (40 SPF)
    Compression mode            : Lossless
    Stream size                 : 4.74 GiB (9%)
    Title                       : Ingles THD [CinemaniaHDD]
    Language                    : English
    Default                     : No
    Forced                      : No
    Original source medium      : Blu-ray
    Number of dynamic objects   : 13
    Bed channel count           : 1 channel
    Bed channel configuration   : LFE

    Audio #3
    ID                          : 4
    ID in the original source m : 4352 (0x1100)
    Format                      : AC-3
    Format/Info                 : Audio Coding 3
    Commercial name             : Dolby Digital
    Codec ID                    : A_AC3
    Duration                    : 2 h 30 min
    Bit rate mode               : Constant
    Bit rate                    : 640 kb/s
    Channel(s)                  : 6 channels
    Channel layout              : L R C LFE Ls Rs
    Sampling rate               : 48.0 kHz
    Frame rate                  : 31.250 FPS (1536 SPF)
    Compression mode            : Lossy
    Stream size                 : 687 MiB (1%)
    Title                       : Ingles AC3 [CinemaniaHDD]
    Language                    : English
    Service kind                : Complete Main
    Default                     : No
    Forced                      : No
    Original source medium      : Blu-ray

    Text #1
    ID                          : 5
    ID in the original source m : 4772 (0x12A4)
    Format                      : PGS
    Muxing mode                 : zlib
    Codec ID                    : S_HDMV/PGS
    Codec ID/Info               : Picture based subtitle format used on BDs/HD-DVDs
    Duration                    : 2 h 10 min
    Bit rate                    : 72 b/s
    Count of elements           : 8
    Stream size                 : 69.4 KiB (0%)
    Title                       : Sub_Forzados [PGS]
    Language                    : Spanish
    Default                     : No
    Forced                      : No
    Original source medium      : Blu-ray

    Text #2
    ID                          : 6
    ID in the original source m : 4770 (0x12A2)
    Format                      : PGS
    Muxing mode                 : zlib
    Codec ID                    : S_HDMV/PGS
    Codec ID/Info               : Picture based subtitle format used on BDs/HD-DVDs
    Duration                    : 2 h 18 min
    Bit rate                    : 35.7 kb/s
    Count of elements           : 3737
    Stream size                 : 35.4 MiB (0%)
    Title                       : Sub_Esp [PGS]
    Language                    : Spanish
    Default                     : No
    Forced                      : No
    Original source medium      : Blu-ray

    Text #3
    ID                          : 7
    ID in the original source m : 4768 (0x12A0)
    Format                      : PGS
    Muxing mode                 : zlib
    Codec ID                    : S_HDMV/PGS
    Codec ID/Info               : Picture based subtitle format used on BDs/HD-DVDs
    Duration                    : 2 h 22 min
    Bit rate                    : 45.9 kb/s
    Count of elements           : 4646
    Stream size                 : 46.9 MiB (0%)
    Title                       : Sub_Eng [PGS]
    Language                    : English
    Default                     : No
    Forced                      : No
    Original source medium      : Blu-ray

    Text #4
    ID                          : 8
    Format                      : UTF-8
    Codec ID                    : S_TEXT/UTF8
    Codec ID/Info               : UTF-8 Plain Text
    Duration                    : 2 h 18 min
    Bit rate                    : 0 b/s
    Count of elements           : 17
    Stream size                 : 432 Bytes (0%)
    Title                       : Sub_Forzados
    Language                    : Spanish
    Default                     : Yes
    Forced                      : Yes

    Text #5
    ID                          : 9
    Format                      : UTF-8
    Codec ID                    : S_TEXT/UTF8
    Codec ID/Info               : UTF-8 Plain Text
    Duration                    : 2 h 18 min
    Bit rate                    : 51 b/s
    Count of elements           : 1700
    Stream size                 : 52.4 KiB (0%)
    Title                       : Sub_Esp
    Language                    : Spanish
    Default                     : No
    Forced                      : No

    Menu
    00:00:00.000                : Chapter 01
    00:06:01.611                : Chapter 02
    00:08:32.386                : Chapter 03
    00:14:11.392                : Chapter 04
    00:18:53.507                : Chapter 05
    00:22:54.748                : Chapter 06
    00:29:34.230                : Chapter 07
    00:34:22.268                : Chapter 08
    00:41:27.318                : Chapter 09
    00:50:50.088                : Chapter 10
    01:00:07.395                : Chapter 11
    01:10:43.155                : Chapter 12
    01:18:20.362                : Chapter 13
    01:27:15.855                : Chapter 14
    01:38:15.472                : Chapter 15
    01:47:08.588                : Chapter 16
    01:52:52.932                : Chapter 17
    01:58:58.756                : Chapter 18
    02:05:42.618                : Chapter 19
    02:14:06.788                : Chapter 20
    02:20:56.990                : Chapter 21

  • Peso: 54.8 GiB

Sinopsis

Descargar El Callejón de Las Almas Perdidas (2021) REMUX 4K UHD HDR Latino. Un buscavidas se compincha con una pitonisa para engañar a la gente y conseguir dinero… Remake del film «El callejón de las almas perdidas» (Nightmare Alley) de 1947.

Español Latino AC3 5.1 BD – Ingles TrueHD 7.1 & AC3 5.1 BD

Disponible Solo Para VIP!!!

Ficha técnica

Video trailer de la película

Enlaces de descarga

Rip de Bluray

Descargar El Callejón de Las Almas Perdidas (2021) REMUX 4K UHD HDR Latino


Aportes de DPeliculasHDmega la pass es:dpeliculashdmega.org Aportes de CinemaniaHD la pass es:cinemaniahdd.com
Guardado en : 4K HDR , 4K UHD , Crimen , Drama , Remux , Suspenso

Películas relacionadas

El Callejón de Las Almas Perdidas (2021) REMUX 4K UHD HDR Latino pelicula full hd, El Callejón de Las Almas Perdidas (2021) REMUX 4K UHD HDR Latino mega latino, El Callejón de Las Almas Perdidas (2021) REMUX 4K UHD HDR Latino 4k latino, El Callejón de Las Almas Perdidas (2021) REMUX 4K UHD HDR Latino pelicula completa, El Callejón de Las Almas Perdidas (2021) REMUX 4K UHD HDR Latino descargar gratis, descargar El Callejón de Las Almas Perdidas (2021) REMUX 4K UHD HDR Latino pelicula latino, El Callejón de Las Almas Perdidas (2021) REMUX 4K UHD HDR Latino 1 link mega, El Callejón de Las Almas Perdidas (2021) REMUX 4K UHD HDR Latino 1 link google drive, El Callejón de Las Almas Perdidas (2021) REMUX 4K UHD HDR Latino hd 1080p latino.
Comentarios 0