×

¿Problemas para descargar con Mozilla, EDGE? Deshabilita la opción "Abrir vinculos en una pestaña nueva" tal como lo muestra ésta imagen.

Dragonball Evolution (2009) REMUX 1080p Latino – CMHDD

301 vistas

Información de Dragonball Evolution (2009) REMUX 1080p Latino – CMHDD

Datos de la película

  • Calidad: Full 1080p
  • Audio: Español Latino AC3 5.1 BLURAY - Ingles DTS 5.1 BLURAY
  • Subtitulos: Español Latino SRT- FORZADOS SRT
  • Resolución: 1920x1080p
  • Formato:
  • Codec: H.264
  • Encoder: Dracarys
  • Mediainfo: Clic para Mostrar Datos Ver
  • Format                      : Matroska
    Format version              : Version 4
    File size                   : 22.2 GiB
    Duration                    : 1 h 25 min
    Overall bit rate mode       : Variable
    Overall bit rate            : 37.2 Mb/s
    Movie name                  : Dragonball Evolution (2009) REMUX 1080p Latino - CMHDD
    Encoded date                : UTC 2020-07-03 22:22:26
    Writing application         : mkvmerge v46.0.0 ('No Deeper Escape') 64-bit
    Writing library             : libebml v1.3.10 + libmatroska v1.5.2

    Video
    ID                          : 1
    Format                      : AVC
    Format/Info                 : Advanced Video Codec
    Format profile              : High@L4.1
    Format settings             : CABAC / 4 Ref Frames
    Format settings, CABAC      : Yes
    Format settings, Reference  : 4 frames
    Codec ID                    : V_MPEG4/ISO/AVC
    Duration                    : 1 h 25 min
    Bit rate mode               : Variable
    Bit rate                    : 32.7 Mb/s
    Maximum bit rate            : 35.0 Mb/s
    Width                       : 1 920 pixels
    Height                      : 1 080 pixels
    Display aspect ratio        : 16:9
    Frame rate mode             : Constant
    Frame rate                  : 23.976 (24000/1001) FPS
    Color space                 : YUV
    Chroma subsampling          : 4:2:0
    Bit depth                   : 8 bits
    Scan type                   : Progressive
    Bits/(Pixel*Frame)          : 0.657
    Stream size                 : 19.5 GiB (88%)
    Default                     : Yes
    Forced                      : No
    Color range                 : Limited
    Color primaries             : BT.709
    Transfer characteristics    : BT.709
    Matrix coefficients         : BT.709

    Audio #1
    ID                          : 2
    Format                      : AC-3
    Format/Info                 : Audio Coding 3
    Commercial name             : Dolby Digital
    Codec ID                    : A_AC3
    Duration                    : 1 h 25 min
    Bit rate mode               : Constant
    Bit rate                    : 448 kb/s
    Channel(s)                  : 6 channels
    Channel layout              : L R C LFE Ls Rs
    Sampling rate               : 48.0 kHz
    Frame rate                  : 31.250 FPS (1536 SPF)
    Compression mode            : Lossy
    Stream size                 : 274 MiB (1%)
    Language                    : Spanish
    Service kind                : Complete Main
    Default                     : Yes
    Forced                      : No

    Audio #2
    ID                          : 3
    Format                      : DTS XLL
    Format/Info                 : Digital Theater Systems
    Commercial name             : DTS-HD Master Audio
    Codec ID                    : A_DTS
    Duration                    : 1 h 25 min
    Bit rate mode               : Variable
    Bit rate                    : 4 024 kb/s
    Channel(s)                  : 6 channels
    Channel layout              : C L R Ls Rs LFE
    Sampling rate               : 48.0 kHz
    Frame rate                  : 93.750 FPS (512 SPF)
    Bit depth                   : 24 bits
    Compression mode            : Lossless
    Stream size                 : 2.40 GiB (11%)
    Language                    : English
    Default                     : No
    Forced                      : No

    Text #1
    ID                          : 4
    Format                      : PGS
    Muxing mode                 : zlib
    Codec ID                    : S_HDMV/PGS
    Codec ID/Info               : Picture based subtitle format used on BDs/HD-DVDs
    Duration                    : 1 h 15 min
    Bit rate                    : 32.5 kb/s
    Count of elements           : 1430
    Stream size                 : 17.5 MiB (0%)
    Language                    : Spanish
    Default                     : No
    Forced                      : No

    Text #2
    ID                          : 5
    Format                      : UTF-8
    Codec ID                    : S_TEXT/UTF8
    Codec ID/Info               : UTF-8 Plain Text
    Duration                    : 1 h 15 min
    Bit rate                    : 41 b/s
    Count of elements           : 715
    Stream size                 : 22.8 KiB (0%)
    Language                    : Spanish
    Default                     : No
    Forced                      : No

    Text #3
    ID                          : 6
    Format                      : UTF-8
    Codec ID                    : S_TEXT/UTF8
    Codec ID/Info               : UTF-8 Plain Text
    Duration                    : 43 min 12 s
    Bit rate                    : 0 b/s
    Count of elements           : 7
    Stream size                 : 209 Bytes (0%)
    Title                       : Forzados
    Language                    : Spanish
    Default                     : Yes
    Forced                      : No

  • Peso: 22.2 GiB

Sinopsis

La aventura de Goku comienza de forma bastante inocente en el exterior de la casa de su abuelo, donde Gohan está adiestrando al joven en unas exóticas técnicas marciales. Goku cumple ese día 18 años, y el regalo de Gohan a su nieto es una Bola de Dragón, una esfera pequeña y redonda cuya superficie es blanda y anacarada pero con una blanca translucidez que le proporciona profundidad. Cuatro estrellas flotan en el interior de la esfera. Sólo existen seis más como ella en el mundo, y se dice que cuando las siete Bolas de Dragón están juntas pueden conceder cualquier deseo a quien las posee. Las Bolas de Dragón tienen conexión tanto con el misterioso pasado del propio Goku como con el próximo eclipse solar, que la superstición señala como el inicio del Apocalipsis. Gohan promete contarle todo a Goku durante la cena especial de cumpleaños que está preparando para su nieto.

Ficha técnica

Video trailer de la película

Enlaces de descarga

Rip de Bluray

Descargar Dragonball Evolution (2009) REMUX 1080p Latino – CMHDD




Aportes de DPeliculasHDmega la pass es:dpeliculashdmega.org Aportes de CinemaniaHD la pass es:cinemaniahdd.com

Películas relacionadas

descargar Dragonball Evolution (2009) REMUX 1080p Latino – CMHDD Full 1080p 1080p gratis, Dragonball Evolution (2009) REMUX 1080p Latino – CMHDD Full 1080p mega 1 link, Dragonball Evolution (2009) REMUX 1080p Latino – CMHDD Full 1080p pelicula completa, descargar Dragonball Evolution (2009) REMUX 1080p Latino – CMHDD Full 1080p gratis en mega.

Dragonball Evolution (2009) REMUX 1080p Latino – CMHDD pelicula full hd, Dragonball Evolution (2009) REMUX 1080p Latino – CMHDD mega latino, Dragonball Evolution (2009) REMUX 1080p Latino – CMHDD 4k latino, Dragonball Evolution (2009) REMUX 1080p Latino – CMHDD pelicula completa, Dragonball Evolution (2009) REMUX 1080p Latino – CMHDD descargar gratis, descargar Dragonball Evolution (2009) REMUX 1080p Latino – CMHDD pelicula latino, Dragonball Evolution (2009) REMUX 1080p Latino – CMHDD 1 link mega, Dragonball Evolution (2009) REMUX 1080p Latino – CMHDD 1 link google drive, Dragonball Evolution (2009) REMUX 1080p Latino – CMHDD hd 1080p latino.
Comentarios 0