×

¿Problemas para descargar con Mozilla, EDGE? Deshabilita la opción "Abrir vinculos en una pestaña nueva" tal como lo muestra ésta imagen.

Dragonball Evolution (2009) Full HD 1080p Latino – CMHDD

501 vistas

Información de Dragonball Evolution (2009) Full HD 1080p Latino – CMHDD

Datos de la película

  • Calidad: Full 1080p
  • Audio: Español Latino AC3 5.1 BLURAY - Ingles DTS 5.1 BLURAY
  • Subtitulos: Español Latino SRT- FORZADOS SRT
  • Resolución: 1920x1080p
  • Formato: MKV
  • Codec: H.264
  • Encoder: Dracarys
  • Mediainfo: Clic para Mostrar Datos Ver
  • Format                      : Matroska
    Format version              : Version 4
    File size                   : 8.96 GiB
    Duration                    : 1 h 25 min
    Overall bit rate mode       : Variable
    Overall bit rate            : 15.0 Mb/s
    Movie name                  : Dragonball Evolution (2009) Full HD 1080p Latino - CMHDD
    Encoded date                : UTC 2020-07-03 22:25:13
    Writing application         : mkvmerge v46.0.0 ('No Deeper Escape') 64-bit
    Writing library             : libebml v1.3.10 + libmatroska v1.5.2

    Video
    ID                          : 1
    Format                      : AVC
    Format/Info                 : Advanced Video Codec
    Format profile              : High@L4.1
    Format settings             : CABAC / 4 Ref Frames
    Format settings, CABAC      : Yes
    Format settings, Reference  : 4 frames
    Codec ID                    : V_MPEG4/ISO/AVC
    Duration                    : 1 h 25 min
    Bit rate                    : 10.5 Mb/s
    Width                       : 1 920 pixels
    Height                      : 1 080 pixels
    Display aspect ratio        : 16:9
    Frame rate mode             : Constant
    Frame rate                  : 23.976 (24000/1001) FPS
    Color space                 : YUV
    Chroma subsampling          : 4:2:0
    Bit depth                   : 8 bits
    Scan type                   : Progressive
    Bits/(Pixel*Frame)          : 0.212
    Stream size                 : 6.29 GiB (70%)
    Writing library             : x264 core 157 r2935 545de2f
    Encoding settings           : cabac=1 / ref=4 / deblock=1:0:0 / analyse=0x3:0x133 / me=tesa / subme=11 / psy=1 / psy_rd=1.00:0.00 / mixed_ref=1 / me_range=24 / chroma_me=1 / trellis=2 / 8x8dct=1 / cqm=0 / deadzone=21,11 / fast_pskip=0 / chroma_qp_offset=-2 / threads=24 / lookahead_threads=6 / sliced_threads=0 / nr=0 / decimate=1 / interlaced=0 / bluray_compat=0 / constrained_intra=0 / bframes=16 / b_pyramid=2 / b_adapt=2 / b_bias=0 / direct=3 / weightb=1 / open_gop=0 / weightp=2 / keyint=240 / keyint_min=24 / scenecut=40 / intra_refresh=0 / rc_lookahead=60 / rc=crf / mbtree=1 / crf=20.0 / qcomp=0.60 / qpmin=0 / qpmax=69 / qpstep=4 / vbv_maxrate=62500 / vbv_bufsize=78125 / crf_max=0.0 / nal_hrd=none / filler=0 / ip_ratio=1.40 / aq=1:1.00
    Default                     : Yes
    Forced                      : No
    Color range                 : Limited
    Color primaries             : BT.709
    Transfer characteristics    : BT.709
    Matrix coefficients         : BT.709

    Audio #1
    ID                          : 2
    Format                      : AC-3
    Format/Info                 : Audio Coding 3
    Commercial name             : Dolby Digital
    Codec ID                    : A_AC3
    Duration                    : 1 h 25 min
    Bit rate mode               : Constant
    Bit rate                    : 448 kb/s
    Channel(s)                  : 6 channels
    Channel layout              : L R C LFE Ls Rs
    Sampling rate               : 48.0 kHz
    Frame rate                  : 31.250 FPS (1536 SPF)
    Compression mode            : Lossy
    Stream size                 : 274 MiB (3%)
    Language                    : Spanish
    Service kind                : Complete Main
    Default                     : Yes
    Forced                      : No

    Audio #2
    ID                          : 3
    Format                      : DTS XLL
    Format/Info                 : Digital Theater Systems
    Commercial name             : DTS-HD Master Audio
    Codec ID                    : A_DTS
    Duration                    : 1 h 25 min
    Bit rate mode               : Variable
    Bit rate                    : 4 024 kb/s
    Channel(s)                  : 6 channels
    Channel layout              : C L R Ls Rs LFE
    Sampling rate               : 48.0 kHz
    Frame rate                  : 93.750 FPS (512 SPF)
    Bit depth                   : 24 bits
    Compression mode            : Lossless
    Stream size                 : 2.40 GiB (27%)
    Language                    : English
    Default                     : No
    Forced                      : No

    Text #1
    ID                          : 4
    Format                      : UTF-8
    Codec ID                    : S_TEXT/UTF8
    Codec ID/Info               : UTF-8 Plain Text
    Duration                    : 1 h 15 min
    Bit rate                    : 41 b/s
    Count of elements           : 715
    Stream size                 : 22.8 KiB (0%)
    Language                    : Spanish
    Default                     : No
    Forced                      : No

    Text #2
    ID                          : 5
    Format                      : UTF-8
    Codec ID                    : S_TEXT/UTF8
    Codec ID/Info               : UTF-8 Plain Text
    Duration                    : 43 min 12 s
    Bit rate                    : 0 b/s
    Count of elements           : 7
    Stream size                 : 209 Bytes (0%)
    Title                       : Forzados
    Language                    : Spanish
    Default                     : Yes
    Forced                      : No

    Text #3
    ID                          : 6
    Format                      : PGS
    Muxing mode                 : zlib
    Codec ID                    : S_HDMV/PGS
    Codec ID/Info               : Picture based subtitle format used on BDs/HD-DVDs
    Duration                    : 1 h 15 min
    Bit rate                    : 32.5 kb/s
    Count of elements           : 1430
    Stream size                 : 17.5 MiB (0%)
    Language                    : Spanish
    Default                     : No
    Forced                      : No

    Menu
    00:00:00.000                : :Chapter 1
    00:01:39.516                : :Chapter 2
    00:07:40.669                : :Chapter 3
    00:10:18.618                : :Chapter 4
    00:13:12.875                : :Chapter 5
    00:18:17.346                : :Chapter 6
    00:22:02.321                : :Chapter 7
    00:26:39.932                : :Chapter 8
    00:28:59.738                : :Chapter 9
    00:33:53.240                : :Chapter 10
    00:37:08.226                : :Chapter 11
    00:41:25.483                : :Chapter 12
    00:48:09.053                : :Chapter 13
    00:56:43.734                : :Chapter 14
    01:02:09.809                : :Chapter 15
    01:04:34.496                : :Chapter 16
    01:07:23.248                : :Chapter 17
    01:10:48.119                : :Chapter 18
    01:14:58.828                : :Chapter 19
    01:16:21.118                : :Chapter 20

  • Peso: 8.96 GiB

Sinopsis

La aventura de Goku comienza de forma bastante inocente en el exterior de la casa de su abuelo, donde Gohan está adiestrando al joven en unas exóticas técnicas marciales. Goku cumple ese día 18 años, y el regalo de Gohan a su nieto es una Bola de Dragón, una esfera pequeña y redonda cuya superficie es blanda y anacarada pero con una blanca translucidez que le proporciona profundidad. Cuatro estrellas flotan en el interior de la esfera. Sólo existen seis más como ella en el mundo, y se dice que cuando las siete Bolas de Dragón están juntas pueden conceder cualquier deseo a quien las posee. Las Bolas de Dragón tienen conexión tanto con el misterioso pasado del propio Goku como con el próximo eclipse solar, que la superstición señala como el inicio del Apocalipsis. Gohan promete contarle todo a Goku durante la cena especial de cumpleaños que está preparando para su nieto.

Ficha técnica

Video trailer de la película

Enlaces de descarga

Rip de Bluray

Descargar Dragonball Evolution (2009) Full HD 1080p Latino – CMHDD




Aportes de DPeliculasHDmega la pass es:dpeliculashdmega.org Aportes de CinemaniaHD la pass es:cinemaniahdd.com

Películas relacionadas

  • Resurrección (2022) AMZN WEB-DL 1080p Latino

    Resurrección (2022) AMZN WEB-DL 1080p Latino

    2022
    Resurrección (2022) AMZN WEB-DL 1080p Latino

    1h 43m 2022

    Descargar Resurrección (2022) AMZN Web-DL 1080p Latino. La vida cuidadosamente construida de una mujer...

    Director: Michael Kefeyalew

    Género: Drama

    Actores: Zarra Kaahn

  • El Lobo Y El Leon (2021) HD 1080p Latino

    El Lobo Y El Leon (2021) HD 1080p Latino

    2021
    El Lobo Y El Leon (2021) HD 1080p Latino

    1h 39m 2021

    Descargar El Lobo Y El Leon (2021) HD 1080p Latino. A la muerte de su abuelo, Alma, un joven pianista...

    Director: Gilles de Maistre

    Género: Aventura

    Actores: Victor Cornfoot

  • El Lobo Y El Leon (2021) PLACEBO Full HD 1080p Latino

    El Lobo Y El Leon (2021) PLACEBO Full HD 1080p Latino

    2021
    El Lobo Y El Leon (2021) PLACEBO Full HD 1080p Latino

    1h 39m 2021

    Descargar El Lobo Y El Leon (2021) PLACEBO Full HD 1080p Latino. A la muerte de su abuelo, Alma, un joven...

    Director: Gilles de Maistre

    Género: Aventura

    Actores: Victor Cornfoot

  • El Lobo Y El Leon (2021) REMUX 1080p Latino

    El Lobo Y El Leon (2021) REMUX 1080p Latino

    2021
    El Lobo Y El Leon (2021) REMUX 1080p Latino

    1h 39m 2021

    Descargar El Lobo Y El Leon (2021) REMUX 1080p Latino. A la muerte de su abuelo, Alma, un joven pianista...

    Director: Gilles de Maistre

    Género: Aventura

    Actores: Victor Cornfoot

  • Plan De Estudios (2022) NF WEB-DL 1080p Latino

    Plan De Estudios (2022) NF WEB-DL 1080p Latino

    2022
    Plan De Estudios (2022) NF WEB-DL 1080p Latino

    1h 41m 2022

    Un expolicía empieza a trabajar en el instituto en el que su difunto mejor amigo daba clase para enfrentarse...

    Director: Daniel Markowicz

    Género: Crimen

    Actores: Zuzanna Galewicz

descargar Dragonball Evolution (2009) Full HD 1080p Latino – CMHDD Full 1080p 1080p gratis, Dragonball Evolution (2009) Full HD 1080p Latino – CMHDD Full 1080p mega 1 link, Dragonball Evolution (2009) Full HD 1080p Latino – CMHDD Full 1080p pelicula completa, descargar Dragonball Evolution (2009) Full HD 1080p Latino – CMHDD Full 1080p gratis en mega.

Dragonball Evolution (2009) Full HD 1080p Latino – CMHDD pelicula full hd, Dragonball Evolution (2009) Full HD 1080p Latino – CMHDD mega latino, Dragonball Evolution (2009) Full HD 1080p Latino – CMHDD 4k latino, Dragonball Evolution (2009) Full HD 1080p Latino – CMHDD pelicula completa, Dragonball Evolution (2009) Full HD 1080p Latino – CMHDD descargar gratis, descargar Dragonball Evolution (2009) Full HD 1080p Latino – CMHDD pelicula latino, Dragonball Evolution (2009) Full HD 1080p Latino – CMHDD 1 link mega, Dragonball Evolution (2009) Full HD 1080p Latino – CMHDD 1 link google drive, Dragonball Evolution (2009) Full HD 1080p Latino – CMHDD hd 1080p latino.
Comentarios 1
  • John Connor - 11 julio, 2020

    es un crimen a la identidad de goku subir esta eme de pelicula