×

¿Problemas para descargar con Mozilla, EDGE? Deshabilita la opción "Abrir vinculos en una pestaña nueva" tal como lo muestra ésta imagen.

Dragon Ball Z- Tree of Might (1990) REMUX 1080p Latino – CMHDD

289 vistas

Información de Dragon Ball Z- Tree of Might (1990) REMUX 1080p Latino – CMHDD

Datos de la película

  • Calidad: Full 1080p
  • Audio: Español Latino AC3 2.0 BLURAY
  • Subtitulos: No
  • Resolución: 1920x1080p
  • Formato: MKV
  • Codec: H.264
  • Encoder: Dracarys
  • Mediainfo: Clic para Mostrar Datos Ver
  • Format                      : Matroska
    Format version              : Version 4
    File size                   : 12.4 GiB
    Duration                    : 1 h 1 min
    Overall bit rate mode       : Constant
    Overall bit rate            : 28.9 Mb/s
    Movie name                  : Dragon Ball Z: Tree of Might (1990) REMUX 1080p Latino - CMHDD
    Encoded date                : UTC 2020-10-22 00:15:29
    Writing application         : mkvmerge v51.0.0 ('I Wish') 64-bit
    Writing library             : libebml v1.4.0 + libmatroska v1.6.2

    Video
    ID                          : 1
    Format                      : AVC
    Format/Info                 : Advanced Video Codec
    Format profile              : High@L4.1
    Format settings             : CABAC / 4 Ref Frames
    Format settings, CABAC      : Yes
    Format settings, Reference  : 4 frames
    Codec ID                    : V_MPEG4/ISO/AVC
    Duration                    : 1 h 1 min
    Bit rate mode               : Constant
    Bit rate                    : 30.0 Mb/s
    Width                       : 1 920 pixels
    Height                      : 1 080 pixels
    Display aspect ratio        : 16:9
    Frame rate mode             : Constant
    Frame rate                  : 23.976 (24000/1001) FPS
    Standard                    : NTSC
    Color space                 : YUV
    Chroma subsampling          : 4:2:0
    Bit depth                   : 8 bits
    Scan type                   : Progressive
    Bits/(Pixel*Frame)          : 0.603
    Stream size                 : 12.3 GiB (99%)
    Language                    : Japanese
    Default                     : Yes
    Forced                      : No
    Color range                 : Limited
    Color primaries             : BT.709
    Transfer characteristics    : BT.709
    Matrix coefficients         : BT.709

    Audio
    ID                          : 2
    Format                      : AC-3
    Format/Info                 : Audio Coding 3
    Commercial name             : Dolby Digital
    Codec ID                    : A_AC3
    Duration                    : 1 h 1 min
    Bit rate mode               : Constant
    Bit rate                    : 192 kb/s
    Channel(s)                  : 2 channels
    Channel layout              : L R
    Sampling rate               : 48.0 kHz
    Frame rate                  : 31.250 FPS (1536 SPF)
    Compression mode            : Lossy
    Stream size                 : 84.1 MiB (1%)
    Language                    : Spanish
    Service kind                : Complete Main
    Default                     : Yes
    Forced                      : No

  • Peso: 12.4 GiB

Sinopsis

Sexta película basada en el manga/anime de Akira Toriyama y tercera de la etapa Dragon Ball Z. Una banda de desertores del ejército de Freezer, capitaneada por el misterioso Tarles, llega a la Tierra con una semilla terrible. Una vez plantada, surge un árbol monstruoso que amenaza con absorber toda vida en el planeta. Por una broma del destino, Tarles resulta ser un saiyan que se parece a Son Goku como si fuera su hermano gemelo.

Ficha técnica

Video trailer de la película

Enlaces de descarga

Rip de Bluray

Descargar Dragon Ball Z- Tree of Might (1990) REMUX 1080p Latino – CMHDD


Aportes de DPeliculasHDmega la pass es:dpeliculashdmega.org Aportes de CinemaniaHD la pass es:cinemaniahdd.com

Películas relacionadas

descargar Dragon Ball Z- Tree of Might (1990) REMUX 1080p Latino – CMHDD Full 1080p 1080p gratis, Dragon Ball Z- Tree of Might (1990) REMUX 1080p Latino – CMHDD Full 1080p mega 1 link, Dragon Ball Z- Tree of Might (1990) REMUX 1080p Latino – CMHDD Full 1080p pelicula completa, descargar Dragon Ball Z- Tree of Might (1990) REMUX 1080p Latino – CMHDD Full 1080p gratis en mega.

Dragon Ball Z- Tree of Might (1990) REMUX 1080p Latino – CMHDD pelicula full hd, Dragon Ball Z- Tree of Might (1990) REMUX 1080p Latino – CMHDD mega latino, Dragon Ball Z- Tree of Might (1990) REMUX 1080p Latino – CMHDD 4k latino, Dragon Ball Z- Tree of Might (1990) REMUX 1080p Latino – CMHDD pelicula completa, Dragon Ball Z- Tree of Might (1990) REMUX 1080p Latino – CMHDD descargar gratis, descargar Dragon Ball Z- Tree of Might (1990) REMUX 1080p Latino – CMHDD pelicula latino, Dragon Ball Z- Tree of Might (1990) REMUX 1080p Latino – CMHDD 1 link mega, Dragon Ball Z- Tree of Might (1990) REMUX 1080p Latino – CMHDD 1 link google drive, Dragon Ball Z- Tree of Might (1990) REMUX 1080p Latino – CMHDD hd 1080p latino.
Comentarios 0