×

¿Problemas para descargar con Mozilla, EDGE? Deshabilita la opción "Abrir vinculos en una pestaña nueva" tal como lo muestra ésta imagen.

Dragon Ball Z- The World’s Strongest (1990) REMUX 1080p Latino – CMHDD

245 vistas

Información de Dragon Ball Z- The World’s Strongest (1990) REMUX 1080p Latino – CMHDD

Datos de la película

  • Calidad: Full 1080p
  • Audio: Español Latino AC3 2.0 BLURAY
  • Subtitulos: No
  • Resolución: 1920x1080p
  • Formato: MKV
  • Codec: H.264
  • Encoder: Dracarys
  • Mediainfo: Clic para Mostrar Datos Ver
  • Format                      : Matroska
    Format version              : Version 4
    File size                   : 12.6 GiB
    Duration                    : 59 min 33 s
    Overall bit rate mode       : Constant
    Overall bit rate            : 30.2 Mb/s
    Movie name                  : Dragon Ball Z: The World's Strongest (1990) REMUX 1080p Latino - CMHDD
    Encoded date                : UTC 2020-10-22 00:17:27
    Writing application         : mkvmerge v51.0.0 ('I Wish') 64-bit
    Writing library             : libebml v1.4.0 + libmatroska v1.6.2

    Video
    ID                          : 1
    Format                      : MPEG Video
    Format version              : Version 2
    Format profile              : Main@High
    Format settings             : BVOP
    Format settings, BVOP       : Yes
    Format settings, Matrix     : Default
    Format settings, GOP        : M=3, N=12
    Codec ID                    : V_MPEG2
    Codec ID/Info               : MPEG 1 or 2 Video
    Duration                    : 59 min 33 s
    Bit rate mode               : Constant
    Bit rate                    : 30.0 Mb/s
    Width                       : 1 920 pixels
    Height                      : 1 080 pixels
    Display aspect ratio        : 16:9
    Frame rate mode             : Constant
    Frame rate                  : 23.976 (24000/1001) FPS
    Color space                 : YUV
    Chroma subsampling          : 4:2:0
    Bit depth                   : 8 bits
    Scan type                   : Progressive
    Compression mode            : Lossy
    Bits/(Pixel*Frame)          : 0.603
    Time code of first frame    : 00:00:00:00
    Time code source            : Group of pictures header
    GOP, Open/Closed            : Closed
    Stream size                 : 12.5 GiB (99%)
    Language                    : Japanese
    Default                     : Yes
    Forced                      : No

    Audio
    ID                          : 2
    Format                      : AC-3
    Format/Info                 : Audio Coding 3
    Commercial name             : Dolby Digital
    Codec ID                    : A_AC3
    Duration                    : 59 min 33 s
    Bit rate mode               : Constant
    Bit rate                    : 192 kb/s
    Channel(s)                  : 2 channels
    Channel layout              : L R
    Sampling rate               : 48.0 kHz
    Frame rate                  : 31.250 FPS (1536 SPF)
    Compression mode            : Lossy
    Stream size                 : 81.8 MiB (1%)
    Language                    : Spanish
    Service kind                : Complete Main
    Default                     : Yes
    Forced                      : No

  • Peso: 12.6 GiB

Sinopsis

Shen Long es invocado por el Dr. Kochin, el cual pide como deseo que el Dr. Wheelo y su laboratorio, sean descongelados del hielo irrompible. Más tarde, el Dr. Kochin secuestra al Maestro Roshi junto con Bulma, para transferir el cerebro del Dr. Wheelo a el cuerpo del «Hombre más fuerte del Mundo», pero Bulma se encarga de informarle, que el Más fuerte de este Mundo, actualmente, es Gokú, el cúal se encuentra en camino para ir a rescatarlos.

Ficha técnica

Video trailer de la película

Enlaces de descarga

Rip de Bluray

Descargar Dragon Ball Z- The World’s Strongest (1990) REMUX 1080p Latino – CMHDD


Aportes de DPeliculasHDmega la pass es:dpeliculashdmega.org Aportes de CinemaniaHD la pass es:cinemaniahdd.com

Películas relacionadas

descargar Dragon Ball Z- The World’s Strongest (1990) REMUX 1080p Latino – CMHDD Full 1080p 1080p gratis, Dragon Ball Z- The World’s Strongest (1990) REMUX 1080p Latino – CMHDD Full 1080p mega 1 link, Dragon Ball Z- The World’s Strongest (1990) REMUX 1080p Latino – CMHDD Full 1080p pelicula completa, descargar Dragon Ball Z- The World’s Strongest (1990) REMUX 1080p Latino – CMHDD Full 1080p gratis en mega.

Dragon Ball Z- The World’s Strongest (1990) REMUX 1080p Latino – CMHDD pelicula full hd, Dragon Ball Z- The World’s Strongest (1990) REMUX 1080p Latino – CMHDD mega latino, Dragon Ball Z- The World’s Strongest (1990) REMUX 1080p Latino – CMHDD 4k latino, Dragon Ball Z- The World’s Strongest (1990) REMUX 1080p Latino – CMHDD pelicula completa, Dragon Ball Z- The World’s Strongest (1990) REMUX 1080p Latino – CMHDD descargar gratis, descargar Dragon Ball Z- The World’s Strongest (1990) REMUX 1080p Latino – CMHDD pelicula latino, Dragon Ball Z- The World’s Strongest (1990) REMUX 1080p Latino – CMHDD 1 link mega, Dragon Ball Z- The World’s Strongest (1990) REMUX 1080p Latino – CMHDD 1 link google drive, Dragon Ball Z- The World’s Strongest (1990) REMUX 1080p Latino – CMHDD hd 1080p latino.
Comentarios 0