Dragon Ball Z- Broly – Second Coming (1994) REMUX 1080p Latino – CMHDD

168 vistas
1 estrella2 estrellas3 estrellas4 estrellas5 estrellas (Ninguna valoración todavía)
Cargando...

Información de Dragon Ball Z- Broly – Second Coming (1994) REMUX 1080p Latino – CMHDD

Datos de la película

  • Calidad: Full 1080p
  • Audio: Español Latino AC3 2.0 BLURAY
  • Subtitulos: No
  • Resolución: 1920x1080p
  • Formato: MKV
  • Codec: H.264
  • Encoder: Dracarys
  • Mediainfo: Clic para Mostrar Datos Ver
  • Format                      : Matroska
    Format version              : Version 4
    File size                   : 7.18 GiB
    Duration                    : 52 min 25 s
    Overall bit rate mode       : Constant
    Overall bit rate            : 19.6 Mb/s
    Movie name                  : Dragon Ball Z: Broly - Second Coming (1994) REMUX 1080p Latino - CMHDD
    Encoded date                : UTC 2020-10-21 23:57:20
    Writing application         : mkvmerge v51.0.0 ('I Wish') 64-bit
    Writing library             : libebml v1.4.0 + libmatroska v1.6.2

    Video
    ID                          : 1
    Format                      : AVC
    Format/Info                 : Advanced Video Codec
    Format profile              : High@L4.1
    Format settings             : CABAC / 4 Ref Frames
    Format settings, CABAC      : Yes
    Format settings, Reference  : 4 frames
    Codec ID                    : V_MPEG4/ISO/AVC
    Duration                    : 52 min 25 s
    Bit rate mode               : Constant
    Bit rate                    : 20.0 Mb/s
    Width                       : 1 920 pixels
    Height                      : 1 080 pixels
    Display aspect ratio        : 16:9
    Frame rate mode             : Constant
    Frame rate                  : 23.976 (24000/1001) FPS
    Standard                    : NTSC
    Color space                 : YUV
    Chroma subsampling          : 4:2:0
    Bit depth                   : 8 bits
    Scan type                   : Progressive
    Bits/(Pixel*Frame)          : 0.402
    Stream size                 : 7.11 GiB (99%)
    Language                    : Japanese
    Default                     : Yes
    Forced                      : No
    Color range                 : Limited
    Color primaries             : BT.709
    Transfer characteristics    : BT.709
    Matrix coefficients         : BT.709

    Audio
    ID                          : 2
    Format                      : AC-3
    Format/Info                 : Audio Coding 3
    Commercial name             : Dolby Digital
    Codec ID                    : A_AC3
    Duration                    : 52 min 25 s
    Bit rate mode               : Constant
    Bit rate                    : 192 kb/s
    Channel(s)                  : 2 channels
    Channel layout              : L R
    Sampling rate               : 48.0 kHz
    Frame rate                  : 31.250 FPS (1536 SPF)
    Compression mode            : Lossy
    Stream size                 : 72.0 MiB (1%)
    Language                    : Spanish
    Service kind                : Complete Main
    Default                     : Yes
    Forced                      : No

  • Peso: 7.18 GiB

Sinopsis

Broly regresa clamando venganza. Tras ser derrotado por Goku en una dura batalla en el planeta Neo Vegeta, Broly logra escapar en una cápsula espacial y llega a la Tierra. Allí queda congelado en un lago durante 7 años. Mientras, buscando las bolas de dragón, Videl, Goten y Trunks llegan a un extraño pueblo amenazado por la presencia de un monstruo. Los sollozos de Goten despiertan a Broly y comienza una batalla.

Ficha técnica

Video trailer de la película

Enlaces de descarga

Rip de Bluray

Descargar Dragon Ball Z- Broly – Second Coming (1994) REMUX 1080p Latino – CMHDD


Aportes de DPeliculasHDmega la pass es:dpeliculashdmega.org Aportes de CinemaniaHD la pass es:cinemaniahdd.com

Películas relacionadas

  • Howard the Duck (1986) REMUX 1080p Latino – CMHDD

    Howard the Duck (1986) REMUX 1080p Latino – CMHDD

    1986
    Howard the Duck (1986) REMUX 1080p Latino – CMHDD

    0.0 1h 51m 1986

    Desde un lejano planeta, y debido a un error de un laboratorio espacial, llega a La Tierra teletransportado...

    Director: Willard Huyck

    Género: Ciencia ficción

    Actores: Wood Moy

  • Space Jam (1996) REMUX 1080p Latino – CMHDD

    Space Jam (1996) REMUX 1080p Latino – CMHDD

    1996
    Space Jam (1996) REMUX 1080p Latino – CMHDD

    0.0 1h 27m 1996

    Bugs Bunny y su equipo desafían a los Nerdlucks (un grupo de pequeños extraterrestres) a un partido...

    Director: Pamela Cederquist

    Género: Animación

    Actores: William G. Schilling

  • S.W.A.T (2019) WEB-DL 1080p Latino

    S.W.A.T (2019) WEB-DL 1080p Latino

    2019
    S.W.A.T (2019) WEB-DL 1080p Latino

    5.0 0h 0m 2019

    Una Unidad de Fuerzas Especiales ha organizado una serie de ejercicios de combate para seleccionar a...

    Director: Ding Sheng

    Género: Acción

    Actores: Zhao Xiaorui

Dragon Ball Z- Broly – Second Coming (1994) REMUX 1080p Latino – CMHDD pelicula full hd, Dragon Ball Z- Broly – Second Coming (1994) REMUX 1080p Latino – CMHDD mega latino, Dragon Ball Z- Broly – Second Coming (1994) REMUX 1080p Latino – CMHDD 4k latino, Dragon Ball Z- Broly – Second Coming (1994) REMUX 1080p Latino – CMHDD pelicula completa, Dragon Ball Z- Broly – Second Coming (1994) REMUX 1080p Latino – CMHDD descargar gratis, descargar Dragon Ball Z- Broly – Second Coming (1994) REMUX 1080p Latino – CMHDD pelicula latino, Dragon Ball Z- Broly – Second Coming (1994) REMUX 1080p Latino – CMHDD 1 link mega, Dragon Ball Z- Broly – Second Coming (1994) REMUX 1080p Latino – CMHDD 1 link google drive, Dragon Ball Z- Broly – Second Coming (1994) REMUX 1080p Latino – CMHDD hd 1080p latino.
Comentarios 1
  • BettoDJ - 17 noviembre, 2020

    muchas gracias por la pelicula !