×

¿Problemas para descargar con Mozilla, EDGE? Deshabilita la opción "Abrir vinculos en una pestaña nueva" tal como lo muestra ésta imagen.

Dragon Ball Z- Bardock – The Father of Goku (1990) REMUX 1080p Latino – CMHDD

392 vistas

Información de Dragon Ball Z- Bardock – The Father of Goku (1990) REMUX 1080p Latino – CMHDD

Datos de la película

  • Calidad: Full 1080p
  • Audio: Español Latino AC3 2.0 BLURAY
  • Subtitulos: No
  • Resolución: 1920x1080p
  • Formato: MKV
  • Codec: H.264
  • Encoder: Dracarys
  • Mediainfo: Clic para Mostrar Datos Ver
  • Format                      : Matroska
    Format version              : Version 4
    File size                   : 10.00 GiB
    Duration                    : 47 min 24 s
    Overall bit rate mode       : Constant
    Overall bit rate            : 30.2 Mb/s
    Movie name                  : Dragon Ball Z: Bardock - The Father of Goku (1990) REMUX 1080p Latino - CMHDD
    Encoded date                : UTC 2020-10-21 23:50:47
    Writing application         : mkvmerge v51.0.0 ('I Wish') 64-bit
    Writing library             : libebml v1.4.0 + libmatroska v1.6.2

    Video
    ID                          : 1
    Format                      : MPEG Video
    Format version              : Version 2
    Format profile              : Main@High
    Format settings             : BVOP
    Format settings, BVOP       : Yes
    Format settings, Matrix     : Default
    Format settings, GOP        : M=3, N=12
    Codec ID                    : V_MPEG2
    Codec ID/Info               : MPEG 1 or 2 Video
    Duration                    : 47 min 24 s
    Bit rate mode               : Constant
    Bit rate                    : 30.0 Mb/s
    Width                       : 1 920 pixels
    Height                      : 1 080 pixels
    Display aspect ratio        : 16:9
    Frame rate mode             : Constant
    Frame rate                  : 23.976 (24000/1001) FPS
    Color space                 : YUV
    Chroma subsampling          : 4:2:0
    Bit depth                   : 8 bits
    Scan type                   : Progressive
    Compression mode            : Lossy
    Bits/(Pixel*Frame)          : 0.603
    Time code of first frame    : 00:00:00:00
    Time code source            : Group of pictures header
    GOP, Open/Closed            : Closed
    Stream size                 : 9.93 GiB (99%)
    Language                    : Japanese
    Default                     : Yes
    Forced                      : No

    Audio
    ID                          : 2
    Format                      : AC-3
    Format/Info                 : Audio Coding 3
    Commercial name             : Dolby Digital
    Codec ID                    : A_AC3
    Duration                    : 47 min 24 s
    Bit rate mode               : Constant
    Bit rate                    : 192 kb/s
    Channel(s)                  : 2 channels
    Channel layout              : L R
    Sampling rate               : 48.0 kHz
    Frame rate                  : 31.250 FPS (1536 SPF)
    Compression mode            : Lossy
    Stream size                 : 65.1 MiB (1%)
    Language                    : Spanish
    Service kind                : Complete Main
    Default                     : Yes
    Forced                      : No

  • Peso: 10.00 GiB

Sinopsis

Especial para televisión que se ubica en el arco argumental de Dragon Ball Z. Se cuenta la historia del padre de Goku, Bardock, y su intento por salvar su planeta aunque le cueste la vida…

Ficha técnica

Video trailer de la película

Enlaces de descarga

Rip de Bluray

Descargar Dragon Ball Z- Bardock – The Father of Goku (1990) REMUX 1080p Latino – CMHDD


Aportes de DPeliculasHDmega la pass es:dpeliculashdmega.org Aportes de CinemaniaHD la pass es:cinemaniahdd.com

Películas relacionadas

  • Paradise Highway (2022) HD 1080p Latino

    Paradise Highway (2022) HD 1080p Latino

    2022
    Paradise Highway (2022) HD 1080p Latino

    1h 55m 2022

    Descargar Paradise Highway (2022) HD 1080p Latino. Un camionero se ha visto obligado a pasar de contrabando...

    Director: Anna Gutto

    Género: Crimen

    Actores: Xavier Scott Evans

  • Paradise Highway (2022) PLACEBO Full HD 1080p Latino

    Paradise Highway (2022) PLACEBO Full HD 1080p Latino

    2022
    Paradise Highway (2022) PLACEBO Full HD 1080p Latino

    1h 55m 2022

    Descargar Paradise Highway (2022) PLACEBO Full HD 1080p Latino. Un camionero se ha visto obligado a pasar...

    Director: Anna Gutto

    Género: Crimen

    Actores: Xavier Scott Evans

  • Paradise Highway (2022) REMUX 1080p Latino

    Paradise Highway (2022) REMUX 1080p Latino

    2022
    Paradise Highway (2022) REMUX 1080p Latino

    1h 55m 2022

    Descargar Paradise Highway (2022) REMUX 1080p Latino. Un camionero se ha visto obligado a pasar de contrabando...

    Director: Anna Gutto

    Género: Crimen

    Actores: Xavier Scott Evans

  • Shotgun Wedding (2022) AMZN WEB-DL 1080p Latino

    Shotgun Wedding (2022) AMZN WEB-DL 1080p Latino

    2022
    Shotgun Wedding (2022) AMZN WEB-DL 1080p Latino

    1h 41m 2022

    Darcy y Tom reúnen a sus familias para la boda de destino definitiva, pero cuando toman como rehenes...

    Director: Jason Moore

    Género: Acción

    Actores: Steve Coulter

descargar Dragon Ball Z- Bardock – The Father of Goku (1990) REMUX 1080p Latino – CMHDD Full 1080p 1080p gratis, Dragon Ball Z- Bardock – The Father of Goku (1990) REMUX 1080p Latino – CMHDD Full 1080p mega 1 link, Dragon Ball Z- Bardock – The Father of Goku (1990) REMUX 1080p Latino – CMHDD Full 1080p pelicula completa, descargar Dragon Ball Z- Bardock – The Father of Goku (1990) REMUX 1080p Latino – CMHDD Full 1080p gratis en mega.

Dragon Ball Z- Bardock – The Father of Goku (1990) REMUX 1080p Latino – CMHDD pelicula full hd, Dragon Ball Z- Bardock – The Father of Goku (1990) REMUX 1080p Latino – CMHDD mega latino, Dragon Ball Z- Bardock – The Father of Goku (1990) REMUX 1080p Latino – CMHDD 4k latino, Dragon Ball Z- Bardock – The Father of Goku (1990) REMUX 1080p Latino – CMHDD pelicula completa, Dragon Ball Z- Bardock – The Father of Goku (1990) REMUX 1080p Latino – CMHDD descargar gratis, descargar Dragon Ball Z- Bardock – The Father of Goku (1990) REMUX 1080p Latino – CMHDD pelicula latino, Dragon Ball Z- Bardock – The Father of Goku (1990) REMUX 1080p Latino – CMHDD 1 link mega, Dragon Ball Z- Bardock – The Father of Goku (1990) REMUX 1080p Latino – CMHDD 1 link google drive, Dragon Ball Z- Bardock – The Father of Goku (1990) REMUX 1080p Latino – CMHDD hd 1080p latino.
Comentarios 0