Dragon Ball GT- A Hero’s Legacy (1997) REMUX 1080p Latino – CMHDD

230 vistas
1 estrella2 estrellas3 estrellas4 estrellas5 estrellas (1 votos, promedio: 5,00 de 5)
Cargando...

Información de Dragon Ball GT- A Hero’s Legacy (1997) REMUX 1080p Latino – CMHDD

Datos de la película

  • Calidad:
  • Audio: Español Latino AC3 2.0 BLURAY
  • Subtitulos: No
  • Resolución: 1920x1080p
  • Formato: MKV
  • Codec: H.264
  • Encoder: Dracarys
  • Mediainfo: Clic para Mostrar Datos Ver
  • Format                      : Matroska
    Format version              : Version 4
    File size                   : 9.32 GiB
    Duration                    : 44 min 11 s
    Overall bit rate mode       : Constant
    Overall bit rate            : 30.2 Mb/s
    Movie name                  : Dragon Ball GT: A Hero's Legacy (1997) REMUX 1080p Latino - CMHDD
    Encoded date                : UTC 2020-10-21 23:48:15
    Writing application         : mkvmerge v51.0.0 ('I Wish') 64-bit
    Writing library             : libebml v1.4.0 + libmatroska v1.6.2

    Video
    ID                          : 1
    Format                      : MPEG Video
    Format version              : Version 2
    Format profile              : Main@High
    Format settings             : BVOP
    Format settings, BVOP       : Yes
    Format settings, Matrix     : Default
    Format settings, GOP        : M=3, N=12
    Format settings, picture st : Frame
    Codec ID                    : V_MPEG2
    Codec ID/Info               : MPEG 1 or 2 Video
    Duration                    : 44 min 10 s
    Bit rate mode               : Constant
    Bit rate                    : 30.0 Mb/s
    Width                       : 1 920 pixels
    Height                      : 1 080 pixels
    Display aspect ratio        : 16:9
    Frame rate mode             : Constant
    Frame rate                  : 29.970 (30000/1001) FPS
    Color space                 : YUV
    Chroma subsampling          : 4:2:0
    Bit depth                   : 8 bits
    Scan type                   : Interlaced
    Scan order                  : Top Field First
    Compression mode            : Lossy
    Bits/(Pixel*Frame)          : 0.483
    Time code of first frame    : 00:00:00;00
    Time code source            : Group of pictures header
    GOP, Open/Closed            : Closed
    Stream size                 : 9.26 GiB (99%)
    Language                    : Japanese
    Default                     : Yes
    Forced                      : No

    Audio
    ID                          : 2
    Format                      : AC-3
    Format/Info                 : Audio Coding 3
    Commercial name             : Dolby Digital
    Codec ID                    : A_AC3
    Duration                    : 44 min 11 s
    Bit rate mode               : Constant
    Bit rate                    : 192 kb/s
    Channel(s)                  : 2 channels
    Channel layout              : L R
    Sampling rate               : 48.0 kHz
    Frame rate                  : 31.250 FPS (1536 SPF)
    Compression mode            : Lossy
    Stream size                 : 60.7 MiB (1%)
    Language                    : Spanish
    Service kind                : Complete Main
    Default                     : Yes
    Forced                      : No

  • Peso: 9.32 GiB

Sinopsis

La historia se sitúa a 100 años después del final de DBGT. La nieta de Goku, Pan, es ahora la abuelita de Goku Jr. (que vendría siendo el tatataranieto de Goku) quien tiene un carácter débil y no conoce su gran poder. Al enfermar Pan, Goku Jr. decide armarse de valor y salir a buscar las bolas de dragón. Por el camino se enfrentará a numerosos peligros que le harán descubrir el gran poder que lleva dentro.

Ficha técnica

  • Titulo original: ドラゴンボールGT 悟空外伝! 勇気の証しは四星球(スーシンチュウ)
  • Fecha de lanzamiento: 26-03-1997 (Japan)
  • Director: Osamu Kasai
  • Género: Animación, Familia, Fantasía
  • Puntuación: 5.0 1 votos
  • Duración:
    0h 45m

Video trailer de la película

Enlaces de descarga

Rip de Bluray

Descargar Dragon Ball GT- A Hero’s Legacy (1997) REMUX 1080p Latino – CMHDD


Aportes de DPeliculasHDmega la pass es:dpeliculashdmega.org Aportes de CinemaniaHD la pass es:cinemaniahdd.com
Guardado en : Animación , Familia , Fantasía

Películas relacionadas

  • Rick and Morty (2021) Temporada 5 AS WEB-DL 1080p Latino

    Rick and Morty (2021) Temporada 5 AS WEB-DL 1080p Latino

    2013
    Rick and Morty (2021) Temporada 5 AS WEB-DL 1080p Latino

    5.0 0h 22m 2013

    Comedia animada que narra las aventuras de un científico loco Rick Sánchez, que regresa después de...

    Director: Justin Roiland

    Género: Action & Adventure

    Actores: Spencer Grammer

  • Siberia (2020) HD 1080p Latino

    Siberia (2020) HD 1080p Latino

    2020
    Siberia (2020) HD 1080p Latino

    0.0 1h 32m 2020

    Descargar Siberia (2020) HD 1080p Latino. Clint es un hombre muerto que vive solo en una tundra helada....

    Director: Natalia Moguel

    Género: Aventura

    Actores: Willem Dafoe

  • Siberia (2020) PLACEBO Full HD 1080p Latino

    Siberia (2020) PLACEBO Full HD 1080p Latino

    2020
    Siberia (2020) PLACEBO Full HD 1080p Latino

    0.0 1h 32m 2020

    Descargar Siberia (2020) PLACEBO Full HD 1080p Latino. Clint es un hombre muerto que vive solo en una...

    Director: Natalia Moguel

    Género: Aventura

    Actores: Willem Dafoe

Dragon Ball GT- A Hero’s Legacy (1997) REMUX 1080p Latino – CMHDD pelicula full hd, Dragon Ball GT- A Hero’s Legacy (1997) REMUX 1080p Latino – CMHDD mega latino, Dragon Ball GT- A Hero’s Legacy (1997) REMUX 1080p Latino – CMHDD 4k latino, Dragon Ball GT- A Hero’s Legacy (1997) REMUX 1080p Latino – CMHDD pelicula completa, Dragon Ball GT- A Hero’s Legacy (1997) REMUX 1080p Latino – CMHDD descargar gratis, descargar Dragon Ball GT- A Hero’s Legacy (1997) REMUX 1080p Latino – CMHDD pelicula latino, Dragon Ball GT- A Hero’s Legacy (1997) REMUX 1080p Latino – CMHDD 1 link mega, Dragon Ball GT- A Hero’s Legacy (1997) REMUX 1080p Latino – CMHDD 1 link google drive, Dragon Ball GT- A Hero’s Legacy (1997) REMUX 1080p Latino – CMHDD hd 1080p latino.
Comentarios 4
  • Prietus - 13 noviembre, 2020

    Hola buenos aportes. Disculpen queria decirles que faltan los enlaces públicos en todas las películas de Dragon Ball. Saludos

    • Dracarys - 13 noviembre, 2020

      solo estan para vip

      • RICARDO III AHMED CLAVARINO MORA - 15 noviembre, 2020

        Hasta cuando, quiero descargar y como me vuelvo vip?

        • Dracarys - 15 noviembre, 2020

          Para ser vip. Tienes un correo que está en la selección vip de la página o hablarme por MP en el chat de la página