×

¿Problemas para descargar con Mozilla, EDGE? Deshabilita la opción "Abrir vinculos en una pestaña nueva" tal como lo muestra ésta imagen.

Dragon Ball (1986-1989) Serie Completa 1080p Latino

4.411 vistas

Información de Dragon Ball (1986-1989) Serie Completa 1080p Latino

Datos de la película

  • Calidad: 1080p
  • Audio: Se especifica abajo de la Sinopsis
  • Subtitulos: Español Latino SRT
  • Resolución: 1920x1080p
  • Formato: MKV
  • Codec: HEVC
  • Encoder: Dracarys
  • Mediainfo: Clic para Mostrar Datos Ver
  • Format                      : Matroska
    Format version              : Version 4
    File size                   : 324 MiB
    Duration                    : 24 min 39 s
    Overall bit rate            : 1 835 kb/s
    Movie name                  : Dragon Ball (1986-1989) [2x04] 1080p Latino -CMHDD
    Encoded date                : UTC 2020-05-23 22:53:00
    Writing application         : mkvmerge v46.0.0 ('No Deeper Escape') 64-bit
    Writing library             : libebml v1.3.10 + libmatroska v1.5.2

    Video
    ID                          : 1
    Format                      : HEVC
    Format/Info                 : High Efficiency Video Coding
    Format profile              : Main 10@L4@Main
    Codec ID                    : V_MPEGH/ISO/HEVC
    Duration                    : 24 min 39 s
    Bit rate                    : 1 512 kb/s
    Width                       : 1 920 pixels
    Height                      : 1 080 pixels
    Display aspect ratio        : 16:9
    Frame rate mode             : Constant
    Frame rate                  : 30.000 FPS
    Color space                 : YUV
    Chroma subsampling          : 4:2:0
    Bit depth                   : 10 bits
    Bits/(Pixel*Frame)          : 0.024
    Stream size                 : 267 MiB (82%)
    Writing library             : x265 2.9+1-169e76b6bbcc:[Windows][GCC 8.2.0][64 bit] 10bit
    Encoding settings           : cpuid=1111039 / frame-threads=3 / numa-pools=8 / wpp / no-pmode / no-pme / no-psnr / no-ssim / log-level=2 / input-csp=1 / input-res=1920x1080 / interlace=0 / total-frames=44382 / level-idc=0 / high-tier=1 / uhd-bd=0 / ref=3 / no-allow-non-conformance / no-repeat-headers / annexb / no-aud / no-hrd / info / hash=0 / no-temporal-layers / open-gop / min-keyint=25 / keyint=250 / gop-lookahead=0 / bframes=4 / b-adapt=2 / b-pyramid / bframe-bias=0 / rc-lookahead=20 / lookahead-slices=6 / scenecut=40 / radl=0 / no-intra-refresh / ctu=64 / min-cu-size=8 / no-rect / no-amp / max-tu-size=32 / tu-inter-depth=1 / tu-intra-depth=1 / limit-tu=0 / rdoq-level=0 / dynamic-rd=0.00 / no-ssim-rd / signhide / no-tskip / nr-intra=0 / nr-inter=0 / no-constrained-intra / strong-intra-smoothing / max-merge=2 / limit-refs=3 / no-limit-modes / me=1 / subme=2 / merange=57 / temporal-mvp / weightp / no-weightb / no-analyze-src-pics / deblock=0:0 / sao / no-sao-non-deblock / rd=3 / no-early-skip / rskip / no-fast-intra / no-tskip-fast / no-cu-lossless / no-b-intra / no-splitrd-skip / rdpenalty=0 / psy-rd=0.00 / psy-rdoq=0.00 / no-rd-refine / no-lossless / cbqpoffs=0 / crqpoffs=0 / rc=abr / bitrate=1500 / qcomp=0.60 / qpstep=4 / stats-write=0 / stats-read=0 / ipratio=1.40 / pbratio=1.30 / aq-mode=1 / aq-strength=0.00 / cutree / zone-count=0 / no-strict-cbr / qg-size=32 / no-rc-grain / qpmax=69 / qpmin=0 / no-const-vbv / sar=1 / overscan=0 / videoformat=5 / range=0 / colorprim=2 / transfer=2 / colormatrix=2 / chromaloc=0 / display-window=0 / max-cll=0,0 / min-luma=0 / max-luma=1023 / log2-max-poc-lsb=8 / vui-timing-info / vui-hrd-info / slices=1 / no-opt-qp-pps / no-opt-ref-list-length-pps / no-multi-pass-opt-rps / scenecut-bias=0.05 / no-opt-cu-delta-qp / no-aq-motion / no-hdr / no-hdr-opt / no-dhdr10-opt / no-idr-recovery-sei / analysis-reuse-level=5 / scale-factor=0 / refine-intra=0 / refine-inter=0 / refine-mv=0 / no-limit-sao / ctu-info=0 / no-lowpass-dct / refine-mv-type=0 / copy-pic=1 / max-ausize-factor=1.0 / no-dynamic-refine / no-single-sei
    Default                     : Yes
    Forced                      : No

    Audio #1
    ID                          : 2
    Format                      : MPEG Audio
    Format version              : Version 1
    Format profile              : Layer 3
    Format settings             : Joint stereo / MS Stereo
    Codec ID                    : A_MPEG/L3
    Codec ID/Hint               : MP3
    Duration                    : 24 min 38 s
    Bit rate mode               : Constant
    Bit rate                    : 128 kb/s
    Channel(s)                  : 2 channels
    Sampling rate               : 48.0 kHz
    Frame rate                  : 41.667 FPS (1152 SPF)
    Compression mode            : Lossy
    Stream size                 : 22.6 MiB (7%)
    Title                       : Japones
    Language                    : Japanese
    Default                     : No
    Forced                      : No

    Audio #2
    ID                          : 3
    Format                      : AAC LC
    Format/Info                 : Advanced Audio Codec Low Complexity
    Codec ID                    : A_AAC-2
    Duration                    : 24 min 39 s
    Bit rate                    : 192 kb/s
    Channel(s)                  : 6 channels
    Channel layout              : C L R Ls Rs LFE
    Sampling rate               : 48.0 kHz
    Frame rate                  : 46.875 FPS (1024 SPF)
    Compression mode            : Lossy
    Delay relative to video     : 80 ms
    Stream size                 : 33.8 MiB (10%)
    Title                       : Español Latino
    Language                    : Spanish
    Default                     : Yes
    Forced                      : No

    Text
    ID                          : 4
    Format                      : ASS
    Codec ID                    : S_TEXT/ASS
    Codec ID/Info               : Advanced Sub Station Alpha
    Duration                    : 22 min 45 s
    Bit rate                    : 109 b/s
    Count of elements           : 260
    Compression mode            : Lossless
    Stream size                 : 18.3 KiB (0%)
    Title                       : Subtítulo completo Español
    Language                    : Spanish
    Default                     : No
    Forced                      : No

  • Peso: 370 MiB X Capitulo

Sinopsis

Serie de TV (1986-1989). 5 temporadas. 153 episodios. Dragon Ball narra la historia de Goku, un excepcional niño que llegó a la Tierra en una cápsula durante una noche tormentosa. Sin saber nada de su pasado, un anciano lo cuidó como su nieto hasta los ocho años. Después de morir su abuelo, Goku accede a la Kame House, lugar donde un estrambótico anciano le convertirá en un campeón de artes marciales. Conocerá por el camino a Bulma, una muchacha obsesionada con algo denominado las Bolas de Dragón, y Krilin, su compañero de aventuras, entre otros…

 

Latino – Japones

 

Ficha técnica

Video trailer de la película

Enlaces de descarga

Rip de Bluray

Descargar Dragon Ball (1986-1989) Serie Completa 1080p Latino




Aportes de DPeliculasHDmega la pass es:dpeliculashdmega.org Aportes de CinemaniaHD la pass es:cinemaniahdd.com

Películas relacionadas

descargar Dragon Ball (1986-1989) Serie Completa 1080p Latino 1080p 1080p gratis, Dragon Ball (1986-1989) Serie Completa 1080p Latino 1080p mega 1 link, Dragon Ball (1986-1989) Serie Completa 1080p Latino 1080p pelicula completa, descargar Dragon Ball (1986-1989) Serie Completa 1080p Latino 1080p gratis en mega.

Dragon Ball (1986-1989) Serie Completa 1080p Latino pelicula full hd, Dragon Ball (1986-1989) Serie Completa 1080p Latino mega latino, Dragon Ball (1986-1989) Serie Completa 1080p Latino 4k latino, Dragon Ball (1986-1989) Serie Completa 1080p Latino pelicula completa, Dragon Ball (1986-1989) Serie Completa 1080p Latino descargar gratis, descargar Dragon Ball (1986-1989) Serie Completa 1080p Latino pelicula latino, Dragon Ball (1986-1989) Serie Completa 1080p Latino 1 link mega, Dragon Ball (1986-1989) Serie Completa 1080p Latino 1 link google drive, Dragon Ball (1986-1989) Serie Completa 1080p Latino hd 1080p latino.
Comentarios 0