Deadpool 2 (2018) [Super Duper Cut] Full 1080p Latino PLACEBO

4.211 vistas
1 estrella2 estrellas3 estrellas4 estrellas5 estrellas (20 votos, promedio: 4,70 de 5)
Cargando…

Información de Deadpool 2 (2018) [Super Duper Cut] Full 1080p Latino PLACEBO

Datos de la película

  • Calidad: Full 1080p
  • Audio: Español Latino AC3 5.1 BLURAY - Ingles DTS 5.1 BLURAY
  • Subtitulos: Español Latino PGS - Ingles PGS
  • Resolución: 1920x1080p
  • Formato: MKV
  • Codec: H.264
  • Encoder: Dracarys
  • Mediainfo: Clic para Mostrar Datos Ver
  • Format                                   : Matroska
    Format version                           : Version 4 / Version 2
    File size                                : 7.72 GiB
    Duration                                 : 2 h 13 min
    Overall bit rate                         : 8 251 kb/s
    Movie name                               : CinemaniaHDD.net
    Encoded date                             : UTC 2018-08-14 02:29:12 / UTC 2018-08-12T23:46:29Z
    Writing application                      : mkvmerge v15.0.0 ('Duel with the Devil') 64-bit
    Writing library                          : libebml v1.3.5 + libmatroska v1.4.5 / Lavf57.7.2

    Video
    ID                                       : 1
    Format                                   : AVC
    Format/Info                              : Advanced Video Codec
    Format profile                           : High@L4.1
    Format settings                          : CABAC / 4 Ref Frames
    Format settings, CABAC                   : Yes
    Format settings, RefFrames               : 4 frames
    Codec ID                                 : V_MPEG4/ISO/AVC
    Duration                                 : 2 h 13 min
    Bit rate                                 : 6 130 kb/s
    Width                                    : 1 920 pixels
    Height                                   : 1 080 pixels
    Display aspect ratio                     : 16:9
    Frame rate mode                          : Constant
    Frame rate                               : 23.976 (24000/1001) FPS
    Color space                              : YUV
    Chroma subsampling                       : 4:2:0
    Bit depth                                : 8 bits
    Scan type                                : Progressive
    Bits/(Pixel*Frame)                       : 0.123
    Stream size                              : 5.74 GiB (74%)
    Title                                    : Deadpool 2 (2018) [Super Duper Cut] Full 1080p Latino PLACEBO
    Writing library                          : x264 core 148 r2708 86b7198
    Encoding settings                        : cabac=1 / ref=4 / deblock=1:0:0 / analyse=0x3:0x133 / me=tesa / subme=11 / psy=1 / psy_rd=1.00:0.00 / mixed_ref=1 / me_range=24 / chroma_me=1 / trellis=2 / 8x8dct=1 / cqm=0 / deadzone=21,11 / fast_pskip=0 / chroma_qp_offset=-2 / threads=34 / lookahead_threads=8 / sliced_threads=0 / nr=0 / decimate=1 / interlaced=0 / bluray_compat=0 / constrained_intra=0 / bframes=16 / b_pyramid=2 / b_adapt=2 / b_bias=0 / direct=3 / weightb=1 / open_gop=0 / weightp=2 / keyint=240 / keyint_min=24 / scenecut=40 / intra_refresh=0 / rc_lookahead=60 / rc=crf / mbtree=1 / crf=20.0 / qcomp=0.60 / qpmin=0 / qpmax=69 / qpstep=4 / vbv_maxrate=62500 / vbv_bufsize=78125 / crf_max=0.0 / nal_hrd=none / filler=0 / ip_ratio=1.40 / aq=1:1.00
    Language                                 : English
    Default                                  : Yes
    Forced                                   : No
    Color range                              : Limited
    Color primaries                          : BT.709
    Transfer characteristics                 : BT.709
    Matrix coefficients                      : BT.709
    Statistics Tags Issue                    : mkvmerge v15.0.0 ('Duel with the Devil') 64-bit 2018-08-14 02:29:12 / mkvmerge v15.0.0 ('Duel with the Devil') 64-bit 2018-08-14 02:29:12 / UTC 2018-08-12T23:46:29Z
    FromStats_BitRate                        : 6264604
    FromStats_Duration                       : 02:13:59.574000000
    FromStats_FrameCount                     : 192757
    FromStats_StreamSize                     : 6295594348

    Audio #1
    ID                                       : 2
    Format                                   : AC-3
    Format/Info                              : Audio Coding 3
    Format settings, Endianness              : Big
    Codec ID                                 : A_AC3
    Duration                                 : 2 h 13 min
    Bit rate mode                            : Constant
    Bit rate                                 : 448 kb/s
    Channel(s)                               : 6 channels
    Channel positions                        : Front: L C R, Side: L R, LFE
    Sampling rate                            : 48.0 kHz
    Frame rate                               : 31.250 FPS (1536 SPF)
    Bit depth                                : 16 bits
    Compression mode                         : Lossy
    Stream size                              : 429 MiB (5%)
    Language                                 : Spanish
    Service kind                             : Complete Main
    Default                                  : Yes
    Forced                                   : No
    Statistics Tags Issue                    : mkvmerge v15.0.0 ('Duel with the Devil') 64-bit 2018-08-14 02:29:12 / mkvmerge v15.0.0 ('Duel with the Devil') 64-bit 2018-08-14 02:29:12 / UTC 2018-08-12T23:46:29Z
    FromStats_BitRate                        : 448000
    FromStats_Duration                       : 02:13:59.584000000
    FromStats_FrameCount                     : 251237
    FromStats_StreamSize                     : 450216704

    Audio #2
    ID                                       : 3
    Format                                   : DTS
    Format/Info                              : Digital Theater Systems
    Format profile                           : ES Matrix / Core
    Mode                                     : 16
    Format settings, Endianness              : Big
    Codec ID                                 : A_DTS
    Duration                                 : 2 h 13 min
    Bit rate mode                            : Constant
    Bit rate                                 : 1 509 kb/s
    Channel(s)                               : 7 channels / 6 channels
    Channel positions                        : Front: L C R, Side: L R, Back: C, LFE / Front: L C R, Side: L R, LFE
    Sampling rate                            : 48.0 kHz
    Frame rate                               : 93.750 FPS (512 SPF)
    Bit depth                                : 24 bits
    Compression mode                         : Lossy
    Stream size                              : 1.41 GiB (18%)
    Language                                 : English
    Default                                  : No
    Forced                                   : No
    Statistics Tags Issue                    : mkvmerge v15.0.0 ('Duel with the Devil') 64-bit 2018-08-14 02:29:12 / mkvmerge v15.0.0 ('Duel with the Devil') 64-bit 2018-08-14 02:29:12 / UTC 2018-08-12T23:46:29Z
    FromStats_BitRate                        : 1508999
    FromStats_Duration                       : 02:13:59.563000000
    FromStats_FrameCount                     : 753709
    FromStats_StreamSize                     : 1516462508

    Text #1
    ID                                       : 4
    Format                                   : PGS
    Muxing mode                              : zlib
    Codec ID                                 : S_HDMV/PGS
    Codec ID/Info                            : Picture based subtitle format used on BDs/HD-DVDs
    Language                                 : English
    Default                                  : No
    Forced                                   : No
    Statistics Tags Issue                    : mkvmerge v15.0.0 ('Duel with the Devil') 64-bit 2018-08-14 02:29:12 / mkvmerge v15.0.0 ('Duel with the Devil') 64-bit 2018-08-14 02:29:12 / UTC 2018-08-12T23:46:29Z
    FromStats_BitRate                        : 47945
    FromStats_Duration                       : 02:13:13.694000000
    FromStats_FrameCount                     : 4851
    FromStats_StreamSize                     : 47908050

    Text #2
    ID                                       : 5
    Format                                   : PGS
    Muxing mode                              : zlib
    Codec ID                                 : S_HDMV/PGS
    Codec ID/Info                            : Picture based subtitle format used on BDs/HD-DVDs
    Language                                 : Spanish
    Default                                  : No
    Forced                                   : No
    Statistics Tags Issue                    : mkvmerge v15.0.0 ('Duel with the Devil') 64-bit 2018-08-14 02:29:12 / mkvmerge v15.0.0 ('Duel with the Devil') 64-bit 2018-08-14 02:29:12 / UTC 2018-08-12T23:46:29Z
    FromStats_BitRate                        : 38383
    FromStats_Duration                       : 02:11:35.763000000
    FromStats_FrameCount                     : 3842
    FromStats_StreamSize                     : 37883843

    Text #3
    ID                                       : 6
    Format                                   : PGS
    Muxing mode                              : zlib
    Codec ID                                 : S_HDMV/PGS
    Codec ID/Info                            : Picture based subtitle format used on BDs/HD-DVDs
    Title                                    : Forzados
    Language                                 : Spanish
    Default                                  : Yes
    Forced                                   : Yes
    Statistics Tags Issue                    : mkvmerge v15.0.0 ('Duel with the Devil') 64-bit 2018-08-14 02:29:12 / mkvmerge v15.0.0 ('Duel with the Devil') 64-bit 2018-08-14 02:29:12 / UTC 2018-08-12T23:46:29Z
    FromStats_BitRate                        : 854
    FromStats_Duration                       : 02:10:49.174000000
    FromStats_FrameCount                     : 66
    FromStats_StreamSize                     : 838129

    Menu
    00:00:00.000                             : :Chapter 1
    00:02:31.693                             : :Chapter 2
    00:07:55.517                             : :Chapter 3
    00:10:46.229                             : :Chapter 4
    00:14:21.194                             : :Chapter 5
    00:17:41.978                             : :Chapter 6
    00:19:10.691                             : :Chapter 7
    00:24:14.370                             : :Chapter 8
    00:27:11.630                             : :Chapter 9
    00:37:17.360                             : :Chapter 10
    00:42:11.821                             : :Chapter 11
    00:44:40.428                             : :Chapter 12
    00:49:30.926                             : :Chapter 13
    00:52:20.471                             : :Chapter 14
    00:56:47.613                             : :Chapter 15
    01:00:59.281                             : :Chapter 16
    01:04:46.257                             : :Chapter 17
    01:07:22.997                             : :Chapter 18
    01:09:45.098                             : :Chapter 19
    01:11:45.009                             : :Chapter 20
    01:15:21.017                             : :Chapter 21
    01:19:19.213                             : :Chapter 22
    01:21:00.189                             : :Chapter 23
    01:24:49.001                             : :Chapter 24
    01:29:10.846                             : :Chapter 25
    01:32:30.420                             : :Chapter 26
    01:36:11.391                             : :Chapter 27
    01:38:18.851                             : :Chapter 28
    01:42:06.329                             : :Chapter 29
    01:44:18.711                             : :Chapter 30
    01:46:03.774                             : :Chapter 31
    01:48:06.730                             : :Chapter 32
    01:51:31.977                             : :Chapter 33
    01:55:05.399                             : :Chapter 34
    01:58:16.047                             : :Chapter 35
    02:02:04.317                             : :Chapter 36

  • Peso: 7.72 GiB

Sinopsis

“Después de sobrevivir a un ataque bovino casi mortal, un chef desfigurado de cafetería (Wade Wilson) lucha por cumplir su sueño de convertirse en el barman más caliente de Mayberry mientras aprende a lidiar con su perdido sentido del gusto.

Buscando recuperar el sabor de la vida, así como un condensador de flujo, Wade debe luchar contra ninjas, los yakuza y un grupo de caninos sexualmente agresivos, mientras recorre el mundo para descubrir la importancia de la familia, la amistad y el sabor – encontrando un nuevo gusto por la aventura y ganando la codiciada taza de café con el título del mejor amante del mundo.”

Ficha técnica

Video trailer de la película

Enlaces de descarga

Rip de Bluray

Descargar Deadpool 2 (2018) [Super Duper Cut] Full 1080p Latino PLACEBO




Aportes de DPeliculasHDmega la pass es:dpeliculashdmega.org Aportes de CinemaniaHD la pass es:cinemaniahdd.com

Películas relacionadas

  • Godzilla (2014) 1080p Latino

    2014
    Godzilla (2014) 1080p Latino

    0.0 2h 3m 2014

    Descargar Godzilla (2014) 1080p Latino, Mega, Google Drive, Torrent. Gareth Edwards dirige este "reboot",...

    Director: Jessica Clothier

    Género: Acción

    Actores: Yuki Morita

  • Godzilla (2014) Full 1080p Latino

    2014
    Godzilla (2014) Full 1080p Latino

    4.2 2h 3m 2014

    Descargar Godzilla (2014) Full 1080p Latino, Mega, Google Drive, Torrent. Gareth Edwards dirige este...

    Director: Jessica Clothier

    Género: Acción

    Actores: Yuki Morita

Comentarios 5
  • carlos - 14 agosto, 2018

    pero ay dos placebo otra consulta abra esta en version imax

    • Dracarys - 14 agosto, 2018

      una es la extendida y la otra no… no saldra por ahora IMAX pero puede que en unos meses la tengamos en Open Matte

  • carlos - 14 agosto, 2018

    amigo disculpa cual de todas es mejor plateada de resolucion para descargala q me recomiendas gracias x t respuesta

    • Dracarys - 14 agosto, 2018

      la placebo si quieres la maxima caliadad

  • Rxdrigx17 - 14 agosto, 2018

    Gracias por tremendo aporte lml