Bohemian Rhapsody (2018) Full HD 1080p Latino

3.654 vistas
1 estrella2 estrellas3 estrellas4 estrellas5 estrellas (3 votos, promedio: 5,00 de 5)
Cargando…

Información de Bohemian Rhapsody (2018) Full HD 1080p Latino

Datos de la película

  • Calidad: Full 1080p
  • Audio: Español Latino AC3 5.1 BLURAY - Ingles DTS 5.1 BLURAY
  • Subtitulos: Español Latino SRT- FORZADOS SRT
  • Resolución: 1920x1080p
  • Formato: MKV
  • Codec: H.264
  • Encoder: Dracarys
  • Mediainfo: Clic para Mostrar Datos Ver
  • Format                      : Matroska
    Format version              : Version 4
    File size                   : 4.14 GiB
    Duration                    : 2 h 14 min
    Overall bit rate            : 4 404 kb/s
    Movie name                  : CinemaniaHDD.net
    Encoded date                : UTC 2019-02-05 14:09:03
    Writing application         : mkvmerge v30.1.0 ('Forever And More') 64-bit
    Writing library             : libebml v1.3.6 + libmatroska v1.4.9 / Lavf58.20.100

    Video
    ID                          : 1
    Format                      : AVC
    Format/Info                 : Advanced Video Codec
    Format profile              : [email protected]
    Format settings             : CABAC / 5 Ref Frames
    Format settings, CABAC      : Yes
    Format settings, ReFrames   : 5 frames
    Codec ID                    : V_MPEG4/ISO/AVC
    Duration                    : 2 h 14 min
    Bit rate                    : 2 421 kb/s
    Width                       : 1 920 pixels
    Height                      : 804 pixels
    Display aspect ratio        : 16:9
    Frame rate mode             : Constant
    Frame rate                  : 23.976 (24000/1001) FPS
    Color space                 : YUV
    Chroma subsampling          : 4:2:0
    Bit depth                   : 8 bits
    Scan type                   : Progressive
    Bits/(Pixel*Frame)          : 0.065
    Stream size                 : 2.28 GiB (55%)
    Writing library             : x264 core 157 r2935 545de2f
    Encoding settings           : cabac=1 / ref=5 / deblock=1:0:0 / analyse=0x1:0x131 / me=tesa / subme=11 / psy=1 / psy_rd=1.00:0.00 / mixed_ref=1 / me_range=24 / chroma_me=1 / trellis=2 / 8x8dct=0 / cqm=0 / deadzone=21,11 / fast_pskip=0 / chroma_qp_offset=-2 / threads=25 / lookahead_threads=6 / sliced_threads=0 / nr=0 / decimate=1 / interlaced=0 / bluray_compat=0 / constrained_intra=0 / bframes=16 / b_pyramid=2 / b_adapt=2 / b_bias=0 / direct=3 / weightb=1 / open_gop=0 / weightp=2 / keyint=240 / keyint_min=24 / scenecut=40 / intra_refresh=0 / rc_lookahead=60 / rc=crf / mbtree=1 / crf=20.0 / qcomp=0.60 / qpmin=0 / qpmax=69 / qpstep=4 / vbv_maxrate=20000 / vbv_bufsize=25000 / crf_max=0.0 / nal_hrd=none / filler=0 / ip_ratio=1.40 / aq=1:1.00
    Language                    : English
    Default                     : Yes
    Forced                      : No
    Color range                 : Limited
    Color primaries             : BT.709
    Transfer characteristics    : BT.709
    Matrix coefficients         : BT.709

    Audio #1
    ID                          : 2
    Format                      : AC-3
    Format/Info                 : Audio Coding 3
    Commercial name             : Dolby Digital
    Codec ID                    : A_AC3
    Duration                    : 2 h 14 min
    Bit rate mode               : Constant
    Bit rate                    : 448 kb/s
    Channel(s)                  : 6 channels
    Channel layout              : L R C LFE Ls Rs
    Sampling rate               : 48.0 kHz
    Frame rate                  : 31.250 FPS (1536 SPF)
    Bit depth                   : 16 bits
    Compression mode            : Lossy
    Delay relative to video     : 5 ms
    Stream size                 : 431 MiB (10%)
    Language                    : Spanish
    Service kind                : Complete Main
    Default                     : Yes
    Forced                      : No

    Audio #2
    ID                          : 3
    Format                      : DTS ES
    Format/Info                 : Digital Theater Systems
    Commercial name             : DTS-ES Matrix
    Codec ID                    : A_DTS
    Duration                    : 2 h 14 min
    Bit rate mode               : Constant
    Bit rate                    : 1 509 kb/s
    Channel(s)                  : 6 channels
    Channel(s)_Original         : 7 channels
    Channel layout              : C L R Ls Rs Cb LFE
    Sampling rate               : 48.0 kHz
    Frame rate                  : 93.750 FPS (512 SPF)
    Bit depth                   : 24 bits
    Compression mode            : Lossy
    Stream size                 : 1.42 GiB (34%)
    Language                    : English
    Default                     : No
    Forced                      : No

    Text #1
    ID                          : 4
    Format                      : PGS
    Muxing mode                 : zlib
    Codec ID                    : S_HDMV/PGS
    Codec ID/Info               : Picture based subtitle format used on BDs/HD-DVDs
    Duration                    : 2 h 11 min
    Bit rate                    : 44.0 kb/s
    Count of elements           : 4536
    Stream size                 : 41.2 MiB (1%)
    Title                       : Completos-PGS
    Language                    : English
    Default                     : No
    Forced                      : No

    Text #2
    ID                          : 5
    Format                      : PGS
    Muxing mode                 : zlib
    Codec ID                    : S_HDMV/PGS
    Codec ID/Info               : Picture based subtitle format used on BDs/HD-DVDs
    Duration                    : 2 h 13 min
    Bit rate                    : 28.9 kb/s
    Count of elements           : 3107
    Stream size                 : 27.6 MiB (1%)
    Title                       : Completos-PGS
    Language                    : Spanish
    Default                     : No
    Forced                      : No

    Text #3
    ID                          : 6
    Format                      : UTF-8
    Codec ID                    : S_TEXT/UTF8
    Codec ID/Info               : UTF-8 Plain Text
    Duration                    : 1 h 58 min
    Bit rate                    : 11 b/s
    Count of elements           : 267
    Stream size                 : 9.90 KiB (0%)
    Title                       : Forzados-SRT
    Language                    : Spanish
    Default                     : Yes
    Forced                      : Yes

    Text #4
    ID                          : 7
    Format                      : UTF-8
    Codec ID                    : S_TEXT/UTF8
    Codec ID/Info               : UTF-8 Plain Text
    Duration                    : 2 h 8 min
    Bit rate                    : 58 b/s
    Count of elements           : 1793
    Stream size                 : 55.3 KiB (0%)
    Title                       : Completos-SRT
    Language                    : Spanish
    Default                     : No
    Forced                      : No

    Menu
    00:00:00.000                : :Chapter 1
    00:03:48.729                : :Chapter 2
    00:07:45.465                : :Chapter 3
    00:11:16.593                : :Chapter 4
    00:17:41.811                : :Chapter 5
    00:21:03.179                : :Chapter 6
    00:27:24.184                : :Chapter 7
    00:33:34.846                : :Chapter 8
    00:37:22.282                : :Chapter 9
    00:45:24.013                : :Chapter 10
    00:52:19.595                : :Chapter 11
    00:56:57.205                : :Chapter 12
    01:03:11.413                : :Chapter 13
    01:10:44.991                : :Chapter 14
    01:15:25.730                : :Chapter 15
    01:21:45.651                : :Chapter 16
    01:26:58.880                : :Chapter 17
    01:32:17.699                : :Chapter 18
    01:36:43.923                : :Chapter 19
    01:43:25.574                : :Chapter 20
    01:50:23.283                : :Chapter 21
    01:54:22.898                : :Chapter 22
    02:00:41.109                : :Chapter 23
    02:07:53.332                : :Chapter 24

     

  • Peso: 4.14 GiB

Sinopsis

Bohemian Rhapsody es una rotunda y sonora celebración de Queen, de su música y de su extraordinario cantante Freddie Mercury, que desafió estereotipos e hizo añicos tradiciones para convertirse en uno de los showmans más queridos del mundo. La película plasma el meteórico ascenso al olimpo de la música de la banda a través de sus icónicas canciones y su revolucionario sonido, su crisis cuando el estilo de vida de Mercury estuvo fuera de control, y su triunfal reunión en la víspera del Live Aid, en la que Mercury, mientras sufría una enfermedad que amenazaba su vida, lidera a la banda en uno de los conciertos de rock más grandes de la historia. Veremos cómo se cimentó el legado de una banda que siempre se pareció más a una familia, y que continúa inspirando a propios y extraños, soñadores y amantes de la música hasta nuestros días.

Ficha técnica

Video trailer de la película

Enlaces de descarga

Rip de Bluray

Descargar Bohemian Rhapsody (2018) Full HD 1080p Latino




Aportes de DPeliculasHDmega la pass es:dpeliculashdmega.org Aportes de CinemaniaHD la pass es:cinemaniahdd.com

Películas relacionadas

  • El Vacio (2018) Temporada 1 NF 1080p Latino

    2018
    El Vacio (2018) Temporada 1 NF 1080p Latino

    0.0 0h 25m 2018

    Tres adolescentes despiertan en un reino extraño lleno de portales mágicos, enigmas desconcertantes...

    Director: Vito Viscomi

    Género: Animación

    Actores: Mark Hildreth

  • Wolf Warrior 2 (2017) 1080p Latino

    2017
    Wolf Warrior 2 (2017) 1080p Latino

    0.0 2h 6m 2017

    Secuela de la película de acción exitosa "Wolf Warrior" (2015) La operación más peligrosa de las...

    Director: Wu Jing

    Género: Acción

    Actores: Yu Qian

  • The Front Runner (2018) Full 1080p Latino

    2018
    The Front Runner (2018) Full 1080p Latino

    0.0 1h 53m 2018

    Narra la campaña presidencial del senador estadounidense Gary Hart, que tuvo lugar en 1988, momento...

    Director: Jason Reitman

    Género: Drama

    Actores: William Walker

  • Robin Hood orígenes (2018) Full 1080p Latino

    2018
    Robin Hood orígenes (2018) Full 1080p Latino

    0.0 1h 56m 2018

    Cuando el joven Robin Hood (Taron Egerton) regresa a su hogar, endurecido, tras luchar como guerrero...

    Director: Otto Bathurst

    Género: Acción

    Actores: Yasen Atour

Comentarios 3
  • Max - 12 febrero, 2019

    disculpa pero me aparece en blanco los recuadros de la publicidad y no me deja acceder a los links , alguna solucion?¿
    No tengo AdBlock ni nada

  • Jorge - 08 febrero, 2019

    Subiras el disco de material extra?

  • luchosky - 05 febrero, 2019

    amigo me alegrastes el dia, la estaba esperando en plateada ya que no pude ir al cine ,, tenia la esperanza que saliera en DTS en español ,por aquello de ser algo musical , pero no importa. graciaassss.