Batman v. Superman: El Origen de la Justicia (2016) Extended 1080p Latino

1.298 vistas
1 estrella2 estrellas3 estrellas4 estrellas5 estrellas (4 votos, promedio: 4,75 de 5)
Cargando…

Información de Batman v. Superman: El Origen de la Justicia (2016) Extended 1080p Latino

Datos de la película

  • Calidad: 1080p
  • Audio: Se especifica abajo de la Sinopsis
  • Subtitulos: Español Latino SRT- FORZADOS SRT
  • Resolución: 1920x800p
  • Formato: MKV
  • Codec: H.264
  • Encoder: CinefiloCool
  • Mediainfo: Clic para Mostrar Datos Ver
  • Batman V Superman - EODLJ (2016) Extended 1080p Latino.mkv
    Format                      : Matroska
    Format version              : Version 4
    File size                   : 5.69 GiB
    Duration                    : 3 h 2 min
    Overall bit rate mode       : Variable
    Overall bit rate            : 4 461 kb/s
    Movie name                  : CinemaniaHDD.Net
    Encoded date                : UTC 2019-01-12 03:28:21
    Writing application         : mkvmerge v29.0.0 ('Like It Or Not') 64-bit
    Writing library             : libebml v1.3.6 + libmatroska v1.4.9

    Video
    ID                          : 1
    Format                      : AVC
    Format/Info                 : Advanced Video Codec
    Format profile              : [email protected]
    Format settings             : CABAC / 5 Ref Frames
    Format settings, CABAC      : Yes
    Format settings, ReFrames   : 5 frames
    Codec ID                    : V_MPEG4/ISO/AVC
    Duration                    : 3 h 2 min
    Bit rate mode               : Variable
    Bit rate                    : 3 500 kb/s
    Width                       : 1 920 pixels
    Height                      : 800 pixels
    Display aspect ratio        : 2.40:1
    Frame rate mode             : Constant
    Frame rate                  : 23.976 (24000/1001) FPS
    Color space                 : YUV
    Chroma subsampling          : 4:2:0
    Bit depth                   : 8 bits
    Scan type                   : Progressive
    Bits/(Pixel*Frame)          : 0.095
    Stream size                 : 4.46 GiB (78%)
    Title                       : HD1080p [Bluray]
    Writing library             : x264 core 155 r2901 7d0ff22
    Encoding settings           : cabac=1 / ref=5 / deblock=1:0:0 / analyse=0x3:0x133 / me=umh / subme=9 / psy=1 / psy_rd=1.00:0.00 / mixed_ref=1 / me_range=16 / chroma_me=1 / trellis=2 / 8x8dct=1 / cqm=0 / deadzone=21,11 / fast_pskip=1 / chroma_qp_offset=-2 / threads=25 / lookahead_threads=2 / sliced_threads=0 / nr=0 / decimate=1 / interlaced=0 / bluray_compat=0 / constrained_intra=0 / bframes=3 / b_pyramid=2 / b_adapt=2 / b_bias=0 / direct=3 / weightb=1 / open_gop=0 / weightp=2 / keyint=240 / keyint_min=24 / scenecut=40 / intra_refresh=0 / rc_lookahead=60 / rc=2pass / mbtree=1 / bitrate=3500 / ratetol=1.0 / qcomp=0.60 / qpmin=0 / qpmax=69 / qpstep=4 / cplxblur=20.0 / qblur=0.5 / vbv_maxrate=62500 / vbv_bufsize=78125 / nal_hrd=vbr / filler=0 / ip_ratio=1.40 / aq=1:1.00
    Default                     : Yes
    Forced                      : Yes
    Color range                 : Limited
    Color primaries             : BT.709
    Transfer characteristics    : BT.709
    Matrix coefficients         : BT.709

    Audio #1
    ID                          : 2
    Format                      : AC-3
    Format/Info                 : Audio Coding 3
    Commercial name             : Dolby Digital
    Codec ID                    : A_AC3
    Duration                    : 3 h 2 min
    Bit rate mode               : Constant
    Bit rate                    : 512 kb/s
    Channel(s)                  : 6 channels
    Channel layout              : L R C LFE Ls Rs
    Sampling rate               : 48.0 kHz
    Frame rate                  : 31.250 FPS (1536 SPF)
    Bit depth                   : 16 bits
    Compression mode            : Lossy
    Delay relative to video     : -5 ms
    Stream size                 : 669 MiB (11%)
    Title                       : AC3_5.1_Hybrid_Esp
    Language                    : Spanish
    Service kind                : Complete Main
    Default                     : Yes
    Forced                      : Yes

    Audio #2
    ID                          : 3
    Format                      : AC-3
    Format/Info                 : Audio Coding 3
    Commercial name             : Dolby Digital
    Codec ID                    : A_AC3
    Duration                    : 3 h 2 min
    Bit rate mode               : Constant
    Bit rate                    : 448 kb/s
    Channel(s)                  : 6 channels
    Channel layout              : L R C LFE Ls Rs
    Sampling rate               : 48.0 kHz
    Frame rate                  : 31.250 FPS (1536 SPF)
    Bit depth                   : 16 bits
    Compression mode            : Lossy
    Stream size                 : 585 MiB (10%)
    Title                       : AC3_5.1_Bluray_Eng
    Language                    : English
    Service kind                : Complete Main
    Default                     : No
    Forced                      : No

    Text #1
    ID                          : 4
    Format                      : UTF-8
    Codec ID                    : S_TEXT/UTF8
    Codec ID/Info               : UTF-8 Plain Text
    Duration                    : 2 h 52 min
    Bit rate                    : 13 b/s
    Count of elements           : 467
    Stream size                 : 16.9 KiB (0%)
    Title                       : Sub_Forzados
    Language                    : Spanish
    Default                     : No
    Forced                      : No

    Text #2
    ID                          : 5
    Format                      : UTF-8
    Codec ID                    : S_TEXT/UTF8
    Codec ID/Info               : UTF-8 Plain Text
    Duration                    : 2 h 55 min
    Bit rate                    : 44 b/s
    Count of elements           : 1659
    Stream size                 : 57.5 KiB (0%)
    Title                       : Sub_Esp
    Language                    : Spanish
    Default                     : No
    Forced                      : No

    Menu
    00:00:00.000                : :Chapter 1
    00:10:10.652                : :Chapter 2
    00:27:00.619                : :Chapter 3
    00:37:49.184                : :Chapter 4
    00:46:54.270                : :Chapter 5
    01:02:04.930                : :Chapter 6
    01:14:10.613                : :Chapter 7
    01:28:06.907                : :Chapter 8
    01:41:46.392                : :Chapter 9
    01:53:52.451                : :Chapter 10
    02:02:58.079                : :Chapter 11
    02:15:03.887                : :Chapter 12
    02:27:54.866                : :Chapter 13
    02:36:51.152                : :Chapter 14
    02:48:27.431                : :Chapter 15
    02:54:43.640                : :Chapter 16

  • Peso: 5.69 GiB

Sinopsis

Descargar Batman v. Superman: El Origen de la Justicia (2016) Extended 1080p Latino, Mega, Google Drive, Torrent. Ante el temor de las acciones que pueda llevar a cabo Superman, el vigilante de Gotham City aparece para poner a raya al superhéroe de Metrópolis, mientras que la opinión pública debate cuál es realmente el héroe que necesitan. El hombre de acero y Batman se sumergen en una contienda territorial, pero las cosas se complican cuando una nueva y peligrosa amenaza surge rápidamente, poniendo en jaque la existencia de la humanidad.

Audio Español “Hibrido” Castellano-Latino AC3 5.1 – Ingles AC3 5.1 Bluray
Creditos Audio Latino: MDCV1721 (Thanks!!)

Ficha técnica

Video trailer de la película

Enlaces de descarga

Rip de Bluray

Descargar Batman v. Superman: El Origen de la Justicia (2016) Extended 1080p Latino




Aportes de DPeliculasHDmega la pass es:dpeliculashdmega.org Aportes de CinemaniaHD la pass es:cinemaniahdd.com
Guardado en : Acción , Aventura , Fantasía , HD 1080p , Sagas
Etiquetado en :

Películas relacionadas

  • Aquaman (2018) Full HD 1080p Latino

    2018
    Aquaman (2018) Full HD 1080p Latino

    5.0 2h 24m 2018

    Un icono durante más de 70 años, Aquaman (Jason Momoa) es el Rey de los Siete Mares. Este reacio gobernante...

    Director: James Wan

    Género: Acción

    Actores: Yahya Abdul-Mateen II

  • Bumblebee (2018) WEB-DL 1080p Castellano

    2018
    Bumblebee (2018) WEB-DL 1080p Castellano

    3.0 1h 54m 2018

    Sexta entrega de la saga 'Transformers', esta vez centrada en el "hermano pequeño" de los Autobots,...

    Director: Travis Knight

    Género: Acción

    Actores: Yianni Apostolopolous

  • Robin Hood (2018) 4K UHD HDR Latino

    2018
    Robin Hood (2018) 4K UHD HDR Latino

    0.0 1h 56m 2018

    Descargar Robin Hood (2018) 4K UHD HDR Latino, Mega, Google Drive. Cuando el joven Robin Hood (Taron...

    Director: Otto Bathurst

    Género: 4K HDR

    Actores: Yasen Atour

  • El último Sharknado: Ya era hora (2018) 1080p Latino

    2018
    El último Sharknado: Ya era hora (2018) 1080p Latino

    3.0 1h 30m 2018

    Todo está perdido, ¿o no? Fin desbloquea el poder de viajar en el tiempo a través de los SHARKNADOS...

    Director: Anthony C. Ferrante

    Género: Acción

    Actores: Vivica A. Fox

Comentarios 0