Baby Driver (2017) Full Latino

3.975 vistas
1 estrella2 estrellas3 estrellas4 estrellas5 estrellas (2 votos, promedio: 4,50 de 5)
Cargando…

Información de Baby Driver (2017) Full Latino

Datos de la película

  • Calidad: Full 1080p
  • Audio: Español Latino AC3 5.1 BLURAY - Ingles DTS 5.1 BLURAY
  • Subtitulos: Español Latino PGS - Ingles PGS
  • Resolución: 1920x1080p
  • Formato: MKV
  • Codec: H.264
  • Encoder: Dpelis1
  • Mediainfo: Clic para Mostrar Datos Ver
  • Video
    ID                                       : 1
    Format                                   : AVC
    Format/Info                              : Advanced Video Codec
    Format profile                           : [email protected]
    Format settings, CABAC                   : Yes
    Format settings, RefFrames               : 4 frames
    Codec ID                                 : V_MPEG4/ISO/AVC
    Duration                                 : 1 h 52 min
    Bit rate                                 : 6 190 kb/s
    Width                                    : 1 920 pixels
    Height                                   : 1 080 pixels
    Display aspect ratio                     : 16:9
    Frame rate mode                          : Constant
    Frame rate                               : 23.976 (24000/1001) FPS
    Color space                              : YUV
    Chroma subsampling                       : 4:2:0
    Bit depth                                : 8 bits
    Scan type                                : Progressive
    Bits/(Pixel*Frame)                       : 0.125
    Stream size                              : 4.87 GiB (73%)
    Writing library                          : x264 core 148 r2708 86b7198
    Encoding settings                        : cabac=1 / ref=4 / deblock=1:0:0 / analyse=0x3:0x133 / me=esa / subme=10 / psy=1 / psy_rd=1.00:0.00 / mixed_ref=1 / me_range=24 / chroma_me=1 / trellis=2 / 8x8dct=1 / cqm=0 / deadzone=21,11 / fast_pskip=1 / chroma_qp_offset=-2 / threads=34 / lookahead_threads=5 / sliced_threads=0 / nr=0 / decimate=1 / interlaced=0 / bluray_compat=0 / constrained_intra=0 / bframes=8 / b_pyramid=2 / b_adapt=2 / b_bias=0 / direct=3 / weightb=1 / open_gop=0 / weightp=2 / keyint=240 / keyint_min=24 / scenecut=40 / intra_refresh=0 / rc_lookahead=60 / rc=crf / mbtree=1 / crf=20.0 / qcomp=0.60 / qpmin=0 / qpmax=69 / qpstep=4 / vbv_maxrate=62500 / vbv_bufsize=78125 / crf_max=0.0 / nal_hrd=none / filler=0 / ip_ratio=1.40 / aq=1:1.00
    Default                                  : Yes
    Forced                                   : No
    Color range                              : Limited
    Color primaries                          : BT.709
    Transfer characteristics                 : BT.709
    Matrix coefficients                      : BT.709

    Audio #1
    ID                                       : 2
    Format                                   : AC-3
    Format/Info                              : Audio Coding 3
    Format settings, Endianness              : Big
    Codec ID                                 : A_AC3
    Duration                                 : 1 h 52 min
    Bit rate mode                            : Constant
    Bit rate                                 : 640 kb/s
    Channel(s)                               : 6 channels
    Channel positions                        : Front: L C R, Side: L R, LFE
    Sampling rate                            : 48.0 kHz
    Frame rate                               : 31.250 FPS (1536 SPF)
    Bit depth                                : 16 bits
    Compression mode                         : Lossy
    Stream size                              : 516 MiB (8%)
    Title                                    : Surround
    Language                                 : Spanish
    Service kind                             : Complete Main
    Default                                  : Yes
    Forced                                   : No

    Audio #2
    ID                                       : 3
    Format                                   : DTS
    Format/Info                              : Digital Theater Systems
    Mode                                     : 16
    Format settings, Endianness              : Big
    Codec ID                                 : A_DTS
    Duration                                 : 1 h 52 min
    Bit rate mode                            : Constant
    Bit rate                                 : 1 509 kb/s
    Channel(s)                               : 6 channels
    Channel positions                        : Front: L C R, Side: L R, LFE
    Sampling rate                            : 48.0 kHz
    Frame rate                               : 93.750 FPS (512 SPF)
    Bit depth                                : 16 bits
    Compression mode                         : Lossy
    Stream size                              : 1.19 GiB (18%)
    Title                                    : Surround
    Language                                 : English
    Default                                  : No
    Forced                                   : No

    Text #1
    ID                                       : 4
    Format                                   : PGS
    Codec ID                                 : S_HDMV/PGS
    Codec ID/Info                            : Picture based subtitle format used on BDs/HD-DVDs
    Language                                 : Spanish
    Default                                  : No
    Forced                                   : No

    Text #2
    ID                                       : 5
    Format                                   : PGS
    Codec ID                                 : S_HDMV/PGS
    Codec ID/Info                            : Picture based subtitle format used on BDs/HD-DVDs
    Language                                 : Spanish
    Default                                  : No
    Forced                                   : No

    Text #3
    ID                                       : 6
    Format                                   : PGS
    Codec ID                                 : S_HDMV/PGS
    Codec ID/Info                            : Picture based subtitle format used on BDs/HD-DVDs
    Language                                 : English
    Default                                  : No
    Forced                                   : No

    Menu
    00:00:00.000                             : :Chapter 1
    00:09:11.051                             : :Chapter 2
    00:13:29.809                             : :Chapter 3
    00:20:58.174                             : :Chapter 4
    00:25:17.599                             : :Chapter 5
    00:33:07.903                             : :Chapter 6
    00:43:43.246                             : :Chapter 7
    00:48:15.643                             : :Chapter 8
    00:53:39.550                             : :Chapter 9
    00:58:51.903                             : :Chapter 10
    01:05:23.545                             : :Chapter 11
    01:11:33.748                             : :Chapter 12
    01:19:16.543                             : :Chapter 13
    01:30:30.675                             : :Chapter 14
    01:38:04.170                             : :Chapter 15
    01:43:30.413                             : :Chapter 16

  • Peso: 6,69 GB

Sinopsis

Descargar gratis Baby Driver (2017) Full Latino. Baby, un joven y talentoso conductor especializado en fugas (Ansel Elgort), depende del ritmo de su banda sonora personal para ser el mejor en lo suyo. Cuando conoce a la chica de sus sueños (Lily James), Baby ve una oportunidad de abandonar su vida criminal y realizar una huida limpia. Pero después de haber sido forzado a trabajar para un jefe del crimen (Kevin Spacey), deberá dar la cara cuando un malogrado golpe amenaza su vida, su amor y su libertad.

Ficha técnica

  • Titulo original: Baby Driver
  • Fecha de lanzamiento: 28-06-2017 (United Kingdom, United States of America)
  • Director: Edgar Wright
  • Género: Acción, Crimen
  • Puntuación: 4.5 2 votos
  • Duración:
    1h 55m

Video trailer de la película

Enlaces de descarga

Rip de Bluray

Descargar Baby Driver (2017) Full Latino




Aportes de DPeliculasHDmega la pass es:dpeliculashdmega.org Aportes de CinemaniaHD la pass es:cinemaniahdd.com
Guardado en : Acción , Crimen

Películas relacionadas

  • Los Despiadados (2019) NF 1080p Latino

    2019
    Los Despiadados (2019) NF 1080p Latino

    0.0 1h 51m 2019

    Un adolescente rebelde acaba convirtiéndose en uno de los mafiosos más ambiciosos de Milán durante...

    Director: Renato De Maria

    Género: Crimen

    Actores: Valentine Payen

  • Miss Bala (2019) 1080p Latino

    2019
    Miss Bala (2019) 1080p Latino

    0.0 1h 44m 2019

    La ganadora de un concurso de belleza se ve obligada a trabajar para un jefe del crimen después de ser...

    Director: Catherine Hardwicke

    Género: Acción

    Actores: Roberto Sosa

Comentarios 7
  • rafael - 05 octubre, 2017

    alguien pudo ver en este formato? me da error al descomprimir

    • dpelis - 05 octubre, 2017

      bajar la parte danada de nuevo, saludos

      • RAFA - 08 octubre, 2017

        Me sigue dando error al descomprimir. que puedo hacer?

        • dpelis - 08 octubre, 2017

          cambiar la version winrar, pero que sea full, oh bajar la parte danada y escribir bien la contrasena

  • slash - 29 septiembre, 2017

    Gracias.

  • hizaki_86 - 28 septiembre, 2017

    Genial, muchas gracias, estaba esperando esta versión, saludos.

  • Jgava - 28 septiembre, 2017

    Gracias admi..saludes desde honduras..