Avatar (2009) [EXTENDED] REMUX 1080p Latino – CMHDD

58 vistas
1 estrella2 estrellas3 estrellas4 estrellas5 estrellas (1 votos, promedio: 5,00 de 5)
Cargando...

Información de Avatar (2009) [EXTENDED] REMUX 1080p Latino – CMHDD

Datos de la película

  • Calidad: Full 1080p
  • Audio: Español Latino AC3 5.1 BLURAY - Ingles DTS 5.1 BLURAY
  • Subtitulos: Español Latino PGS
  • Resolución: 1920x1080p
  • Formato: MKV
  • Codec: H.264
  • Encoder: Dracarys
  • Mediainfo: Clic para Mostrar Datos Ver
  • Format                      : Matroska
    Format version              : Version 4
    File size                   : 35.0 GiB
    Duration                    : 2 h 58 min
    Overall bit rate mode       : Variable
    Overall bit rate            : 28.1 Mb/s
    Movie name                  : Avatar (2009) [EXTENDED] REMUX 1080p Latino - CMHDD
    Encoded date                : UTC 2021-01-19 16:10:43
    Writing application         : mkvmerge v51.0.0 ('I Wish') 64-bit
    Writing library             : libebml v1.4.0 + libmatroska v1.6.2

    Video
    ID                          : 1
    Format                      : AVC
    Format/Info                 : Advanced Video Codec
    Format profile              : High@L4.1
    Format settings             : CABAC / 2 Ref Frames
    Format settings, CABAC      : Yes
    Format settings, Reference  : 2 frames
    Format settings, GOP        : M=3, N=24
    Codec ID                    : V_MPEG4/ISO/AVC
    Duration                    : 2 h 58 min
    Bit rate                    : 23.5 Mb/s
    Width                       : 1 920 pixels
    Height                      : 1 080 pixels
    Display aspect ratio        : 16:9
    Frame rate mode             : Constant
    Frame rate                  : 23.976 (24000/1001) FPS
    Color space                 : YUV
    Chroma subsampling          : 4:2:0
    Bit depth                   : 8 bits
    Scan type                   : Progressive
    Bits/(Pixel*Frame)          : 0.473
    Stream size                 : 29.3 GiB (84%)
    Language                    : English
    Default                     : No
    Forced                      : No

    Audio #1
    ID                          : 2
    Format                      : AC-3
    Format/Info                 : Audio Coding 3
    Commercial name             : Dolby Digital
    Codec ID                    : A_AC3
    Duration                    : 2 h 58 min
    Bit rate mode               : Constant
    Bit rate                    : 448 kb/s
    Channel(s)                  : 6 channels
    Channel layout              : L R C LFE Ls Rs
    Sampling rate               : 48.0 kHz
    Frame rate                  : 31.250 FPS (1536 SPF)
    Compression mode            : Lossy
    Stream size                 : 571 MiB (2%)
    Language                    : Spanish
    Service kind                : Complete Main
    Default                     : Yes
    Forced                      : No

    Audio #2
    ID                          : 3
    Format                      : DTS XLL
    Format/Info                 : Digital Theater Systems
    Commercial name             : DTS-HD Master Audio
    Codec ID                    : A_DTS
    Duration                    : 2 h 58 min
    Bit rate mode               : Variable
    Bit rate                    : 4 133 kb/s
    Channel(s)                  : 6 channels
    Channel layout              : C L R Ls Rs LFE
    Sampling rate               : 48.0 kHz
    Frame rate                  : 93.750 FPS (512 SPF)
    Bit depth                   : 24 bits
    Compression mode            : Lossless
    Stream size                 : 5.14 GiB (15%)
    Language                    : English
    Default                     : No
    Forced                      : No

    Text #1
    ID                          : 4
    Format                      : PGS
    Muxing mode                 : zlib
    Codec ID                    : S_HDMV/PGS
    Codec ID/Info               : Picture based subtitle format used on BDs/HD-DVDs
    Duration                    : 2 h 57 min
    Bit rate                    : 23.6 kb/s
    Count of elements           : 2784
    Stream size                 : 29.9 MiB (0%)
    Language                    : Spanish
    Default                     : No
    Forced                      : No

    Text #2
    ID                          : 5
    Format                      : PGS
    Muxing mode                 : zlib
    Codec ID                    : S_HDMV/PGS
    Codec ID/Info               : Picture based subtitle format used on BDs/HD-DVDs
    Duration                    : 2 h 44 min
    Bit rate                    : 1 596 b/s
    Count of elements           : 162
    Stream size                 : 1.88 MiB (0%)
    Language                    : Spanish
    Default                     : Yes
    Forced                      : No

    Menu
    00:00:00.000                : en:Lost Soul
    00:05:25.575                : en:A New World
    00:10:12.278                : en:You Are Not In Kansas Anymore
    00:11:47.915                : en:"This Is Your Avatar Now, Jake ."
    00:15:59.208                : en:"This Is Why We're Here..."
    00:17:54.782                : en:First Awakening
    00:23:54.891                : en:Colonel Quaritch
    00:27:54.547                : en:First Sortie
    00:30:27.617                : en:Abandoned Schoolhouse
    00:32:27.904                : en:Thanator Chase
    00:37:16.525                : en:A Sign
    00:39:08.053                : en:Viperwolves
    00:41:18.475                : en:Neytiri
    00:49:16.912                : en:The Omaticaya Clan
    00:55:42.213                : en:Cover Report
    01:01:09.415                : en:The Hallelujah Mountains
    01:07:03.227                : en:Learn Fast Or Die
    01:11:50.222                : en:A Mother's Pain
    01:15:53.799                : en:Banshee Rookery
    01:22:38.119                : en:First Flight
    01:26:12.709                : en:Clan Hunt
    01:27:42.298                : en:Last Shadow
    01:33:00.407                : en:A Son Of the Omaticaya
    01:37:36.892                : en:Willow Glade Destruction
    01:44:15.290                : en:Conflict Escalation
    01:50:02.595                : en:"You Will Never Be One Of The People!"
    01:51:53.581                : en:Assault On Hometree
    01:58:30.895                : en:Aftermath
    02:02:13.284                : en:Escape From Hell's Gate
    02:07:51.663                : en:There's Something We Gotta Do..."
    02:09:30.554                : en:Toruk Macto
    02:12:36.615                : en:"She's Real"
    02:16:03.363                : en:Recruiting The Clans
    02:19:31.654                : en:Preamble To Battle
    02:23:59.630                : en:Battle For Pandora
    02:30:05.079                : en:Fall Of The Heroes
    02:33:56.852                : en:Eywa
    02:40:02.259                : en:Quartich Fight
    02:45:33.214                : en:"I See You"
    02:46:48.498                : en:My Brother
    02:48:56.793                : en:Transformation
    02:51:32.073                : en:End Credits

  • Peso: 35.0 GiB

Sinopsis

Año 2154. Jake Sully, un ex-marine condenado a vivir en una silla de ruedas, sigue siendo un auténtico guerrero. Por ello ha sido designado para ir a Pandora, donde algunas empresas están extrayendo un mineral extraño que podría resolver la crisis energética de la Tierra. Para contrarrestar la toxicidad de la atmósfera de Pandora, se ha creado el programa Avatar, gracias al cual los seres humanos mantienen sus conciencias unidas a un avatar: un cuerpo biológico controlado de forma remota que puede sobrevivir en el aire letal. Esos cuerpos han sido creados con ADN humano mezclado con ADN de los nativos de Pandora, los Na’vi. Convertido en avatar, Jake puede caminar otra vez. Su misión consiste en infiltrarse entre los Na’vi, que se han convertido en el mayor obstáculo para la extracción del mineral. Pero cuando Neytiri, una bella Na’vi, salva la vida de Jake, todo cambia: Jake, tras superar ciertas pruebas, es admitido en su clan.

Ficha técnica

Video trailer de la película

Enlaces de descarga

Rip de Bluray

Descargar Avatar (2009) [EXTENDED] REMUX 1080p Latino – CMHDD


Aportes de DPeliculasHDmega la pass es:dpeliculashdmega.org Aportes de CinemaniaHD la pass es:cinemaniahdd.com

Películas relacionadas

Comentarios 2
  • Anonimo - 20 enero, 2021

    Oye, quiero ver la Peli en buena calidad, es injusto que solo lo tengas disponible para privado, casi nadie conoce esta pagina. Tu comunidad quienes sean son solo cuatro gatos que se la pasan chateando todo el día…. Pasa el Link para la gente publica por favor, así disfrutamos con mis amigos el fin de semana.