×

¿Problemas para descargar con Mozilla, EDGE? Deshabilita la opción "Abrir vinculos en una pestaña nueva" tal como lo muestra ésta imagen.

Arrow (2019) Temporada 08 AMZN Web-DL 1080p Latino

3.638 vistas

Información de Arrow (2019) Temporada 08 AMZN Web-DL 1080p Latino

Datos de la película

  • Calidad: WEBDL
  • Audio: Español Latino AC3 2.0 Capturado- Ingles AC3 5.1 AMAZON
  • Subtitulos: Español Latino SRT - Ingles SRT
  • Resolución: 1920x1080p
  • Formato: MKV
  • Codec: H.264
  • Encoder: CinefiloCool
  • Mediainfo: Clic para Mostrar Datos Ver
  • Arrow S08E01 (2019) AMZN Web-DL 1080p Latino.mkv
    Format                      : Matroska
    Format version              : Version 4
    File size                   : 3.04 GiB
    Duration                    : 42 min 25 s
    Overall bit rate            : 10.3 Mb/s
    Movie name                  : CinemaniaHDD.Net
    Encoded date                : UTC 2019-11-02 05:58:29
    Writing application         : mkvmerge v38.0.0 ('The Silent Type') 64-bit
    Writing library             : libebml v1.3.9 + libmatroska v1.5.2
    Attachments                 : CINEMANIAHD.png

    Video
    ID                          : 1
    Format                      : AVC
    Format/Info                 : Advanced Video Codec
    Format profile              : High@L4
    Format settings             : CABAC / 4 Ref Frames
    Format settings, CABAC      : Yes
    Format settings, ReFrames   : 4 frames
    Codec ID                    : V_MPEG4/ISO/AVC
    Duration                    : 42 min 25 s
    Bit rate mode               : Constant
    Bit rate                    : 9 374 kb/s
    Nominal bit rate            : 10 000 kb/s
    Width                       : 1 920 pixels
    Height                      : 1 080 pixels
    Display aspect ratio        : 16:9
    Frame rate mode             : Constant
    Frame rate                  : 23.976 (24000/1001) FPS
    Color space                 : YUV
    Chroma subsampling          : 4:2:0
    Bit depth                   : 8 bits
    Scan type                   : Progressive
    Bits/(Pixel*Frame)          : 0.189
    Stream size                 : 2.78 GiB (91%)
    Title                       : Full HD1080p [Web]
    Default                     : Yes
    Forced                      : No
    Color range                 : Limited
    Color primaries             : BT.709
    Transfer characteristics    : BT.709
    Matrix coefficients         : BT.709

    Audio #1
    ID                          : 2
    Format                      : AC-3
    Format/Info                 : Audio Coding 3
    Commercial name             : Dolby Digital
    Codec ID                    : A_AC3
    Duration                    : 42 min 25 s
    Bit rate mode               : Constant
    Bit rate                    : 256 kb/s
    Channel(s)                  : 2 channels
    Channel layout              : L R
    Sampling rate               : 48.0 kHz
    Frame rate                  : 31.250 FPS (1536 SPF)
    Bit depth                   : 16 bits
    Compression mode            : Lossy
    Stream size                 : 77.7 MiB (2%)
    Title                       : AC3_TV_Esp
    Language                    : Spanish
    Service kind                : Complete Main
    Default                     : Yes
    Forced                      : Yes

    Audio #2
    ID                          : 3
    Format                      : E-AC-3
    Format/Info                 : Enhanced AC-3
    Commercial name             : Dolby Digital Plus
    Codec ID                    : A_EAC3
    Duration                    : 42 min 25 s
    Bit rate mode               : Constant
    Bit rate                    : 640 kb/s
    Channel(s)                  : 6 channels
    Channel layout              : L R C LFE Ls Rs
    Sampling rate               : 48.0 kHz
    Frame rate                  : 31.250 FPS (1536 SPF)
    Compression mode            : Lossy
    Stream size                 : 194 MiB (6%)
    Title                       : DDP_5.1_Web_Eng
    Language                    : English
    Service kind                : Complete Main
    Default                     : No
    Forced                      : No

    Text #1
    ID                          : 4
    Format                      : UTF-8
    Codec ID                    : S_TEXT/UTF8
    Codec ID/Info               : UTF-8 Plain Text
    Duration                    : 41 min 57 s
    Bit rate                    : 67 b/s
    Count of elements           : 628
    Stream size                 : 20.8 KiB (0%)
    Title                       : Sub_Esp
    Language                    : Spanish
    Default                     : No
    Forced                      : No

    Text #2
    ID                          : 5
    Format                      : UTF-8
    Codec ID                    : S_TEXT/UTF8
    Codec ID/Info               : UTF-8 Plain Text
    Duration                    : 42 min 18 s
    Bit rate                    : 70 b/s
    Count of elements           : 689
    Stream size                 : 22.0 KiB (0%)
    Title                       : Sub_Eng
    Language                    : English
    Default                     : No
    Forced                      : No

  • Peso: 2.95 GiB Aprox. C/U.

Sinopsis

Descargar Arrow (2019) Temporada 08 AMZN Web-DL 1080p Latino. Adaptación libre de un personaje de DC Comics, playboy de día, que, durante la noche, usa su arco y sus flechas contra el crimen. Tras haber desaparecido y haber sido dado por muerto en un violento naufragio, el multimillonario playboy Oliver Queen es rescatado con vida cinco años después en una isla del Pacífico. Una vez en casa, su madre, su hermana y su mejor amigo notan que la terrible experiencia sufrida lo ha cambiado profundamente. Él, por su parte, trata de ocultar la verdad sobre sí mismo, pero se propone enmendar los errores que cometió en el pasado. Con la ayuda de su fiel chófer y guardaespaldas, vuelve a su antigua vida de mujeriego despreocupado, pero, en secreto, crea el personaje de un justiciero encapuchado que lucha contra el mal.

A punto de descubrir lo que el futuro le tiene preparado, Oliver se encontrará a sí mismo al borde de su batalla más difícil hasta el día de hoy, una que dejará al multiverso colgando en la balanza. En la temporada final de Arrow, Oliver Queen se ve forzado a confrontar la realidad de lo que significa ser un héroe.

Audio Latino: CinefiloCool
Temporada Completa 10/10 Capitulos Agregados
Final de Serie

Ficha técnica

Video trailer de la película

Enlaces de descarga

Rip de Bluray

Descargar Arrow (2019) Temporada 08 AMZN Web-DL 1080p Latino




Aportes de DPeliculasHDmega la pass es:dpeliculashdmega.org Aportes de CinemaniaHD la pass es:cinemaniahdd.com

Películas relacionadas

  • Stromboli (2022) NF WEB-DL 1080p Latino

    Stromboli (2022) NF WEB-DL 1080p Latino

    2022
    Stromboli (2022) NF WEB-DL 1080p Latino

    1h 26m 2022

    Descargar Stromboli (2022) NF WEB-DL 1080p Latino. Sara, una mujer que se ha divorciado recientemente,...

    Director: Michiel van Erp

    Género: Drama

    Actores: Tim McInnerny

  • Infiesto (2023) NF WEB-DL 1080p Castellano

    Infiesto (2023) NF WEB-DL 1080p Castellano

    2023
    Infiesto (2023) NF WEB-DL 1080p Castellano

    1h 36m 2023

    Descargar Infiesto (2023) NF WEB-DL 1080p Castellano. Mientras el coronavirus trastoca sus vidas, dos...

    Director: Patxi Amezcua

    Género: Crimen

    Actores: Luis Zahera

  • Espiritu Libre (2023) NF WEB-DL 1080p Latino

    Espiritu Libre (2023) NF WEB-DL 1080p Latino

    2023
    Espiritu Libre (2023) NF WEB-DL 1080p Latino

    1h 49m 2023

    Descargar Espiritu Libre (2023) NF WEB-DL 1080p Latino. La película se basa en la increíble historia...

    Director: Sarah Spillane

    Género: Aventura

    Actores: Vivien Turner

descargar Arrow (2019) Temporada 08 AMZN Web-DL 1080p Latino WEBDL 1080p gratis, Arrow (2019) Temporada 08 AMZN Web-DL 1080p Latino WEBDL mega 1 link, Arrow (2019) Temporada 08 AMZN Web-DL 1080p Latino WEBDL serie completa, descargar Arrow (2019) Temporada 08 AMZN Web-DL 1080p Latino WEBDL gratis en mega.

Arrow (2019) Temporada 08 AMZN Web-DL 1080p Latino pelicula full hd, Arrow (2019) Temporada 08 AMZN Web-DL 1080p Latino mega latino, Arrow (2019) Temporada 08 AMZN Web-DL 1080p Latino 4k latino, Arrow (2019) Temporada 08 AMZN Web-DL 1080p Latino pelicula completa, Arrow (2019) Temporada 08 AMZN Web-DL 1080p Latino descargar gratis, descargar Arrow (2019) Temporada 08 AMZN Web-DL 1080p Latino pelicula latino, Arrow (2019) Temporada 08 AMZN Web-DL 1080p Latino 1 link mega, Arrow (2019) Temporada 08 AMZN Web-DL 1080p Latino 1 link google drive, Arrow (2019) Temporada 08 AMZN Web-DL 1080p Latino hd 1080p latino.
Comentarios 0