Animales nocturnos (2016) Full 1080p Latino

1.098 vistas
1 estrella2 estrellas3 estrellas4 estrellas5 estrellas (2 votos, promedio: 3,00 de 5)
Cargando…

Información de Animales nocturnos (2016) Full 1080p Latino

Datos de la película

  • Calidad: Full 1080p
  • Audio: Español Latino DTS 5.1 BLURAY - Ingles DTS 5.1 BLURAY
  • Subtitulos: Español Latino PGS - Ingles PGS
  • Resolución: 1920x1080p
  • Formato: MKV
  • Codec: H.264
  • Encoder: Dracarys
  • Mediainfo: Clic para Mostrar Datos Ver
  • Format                                   : Matroska
    Format version                           : Version 4 / Version 2
    File size                                : 5.46 GiB
    Duration                                 : 1 h 56 min
    Overall bit rate                         : 6 736 kb/s
    Movie name                               : CinemaniaHDD.net
    Encoded date                             : UTC 2018-06-12 21:43:40 / UTC 2018-06-07T09:38:36Z
    Writing application                      : mkvmerge v15.0.0 ('Duel with the Devil') 64-bit
    Writing library                          : libebml v1.3.5 + libmatroska v1.4.5 / Lavf57.7.2

    Video
    ID                                       : 1
    Format                                   : AVC
    Format/Info                              : Advanced Video Codec
    Format profile                           : High@L4.1
    Format settings                          : CABAC / 4 Ref Frames
    Format settings, CABAC                   : Yes
    Format settings, RefFrames               : 4 frames
    Codec ID                                 : V_MPEG4/ISO/AVC
    Duration                                 : 1 h 56 min
    Bit rate                                 : 4 325 kb/s
    Width                                    : 1 920 pixels
    Height                                   : 1 080 pixels
    Display aspect ratio                     : 16:9
    Frame rate mode                          : Constant
    Frame rate                               : 23.976 (24000/1001) FPS
    Color space                              : YUV
    Chroma subsampling                       : 4:2:0
    Bit depth                                : 8 bits
    Scan type                                : Progressive
    Bits/(Pixel*Frame)                       : 0.087
    Stream size                              : 3.51 GiB (64%)
    Title                                    : Animales nocturnos (2016) Full 1080p Latino
    Writing library                          : x264 core 148 r2708 86b7198
    Encoding settings                        : cabac=1 / ref=4 / deblock=1:0:0 / analyse=0x3:0x133 / me=esa / subme=9 / psy=1 / psy_rd=1.00:0.00 / mixed_ref=1 / me_range=16 / chroma_me=1 / trellis=2 / 8x8dct=1 / cqm=0 / deadzone=21,11 / fast_pskip=1 / chroma_qp_offset=-2 / threads=34 / lookahead_threads=2 / sliced_threads=0 / nr=0 / decimate=1 / interlaced=0 / bluray_compat=0 / constrained_intra=0 / bframes=3 / b_pyramid=2 / b_adapt=2 / b_bias=0 / direct=3 / weightb=1 / open_gop=0 / weightp=2 / keyint=240 / keyint_min=24 / scenecut=40 / intra_refresh=0 / rc_lookahead=60 / rc=crf / mbtree=1 / crf=20.0 / qcomp=0.60 / qpmin=0 / qpmax=69 / qpstep=4 / vbv_maxrate=62500 / vbv_bufsize=78125 / crf_max=0.0 / nal_hrd=none / filler=0 / ip_ratio=1.40 / aq=1:1.00
    Language                                 : English
    Default                                  : Yes
    Forced                                   : No
    Color range                              : Limited
    Color primaries                          : BT.709
    Transfer characteristics                 : BT.709
    Matrix coefficients                      : BT.709
    Statistics Tags Issue                    : mkvmerge v15.0.0 ('Duel with the Devil') 64-bit 2018-06-12 21:43:40 / mkvmerge v15.0.0 ('Duel with the Devil') 64-bit 2018-06-12 21:43:40 / UTC 2018-06-07T09:38:36Z
    FromStats_BitRate                        : 4434348
    FromStats_Duration                       : 01:56:07.961000000
    FromStats_FrameCount                     : 167064
    FromStats_StreamSize                     : 3862296046

    Audio #1
    ID                                       : 2
    Format                                   : DTS
    Format/Info                              : Digital Theater Systems
    Mode                                     : 16
    Format settings, Endianness              : Big
    Codec ID                                 : A_DTS
    Duration                                 : 1 h 56 min
    Bit rate mode                            : Constant
    Bit rate                                 : 768 kb/s
    Channel(s)                               : 6 channels
    Channel positions                        : Front: L C R, Side: L R, LFE
    Sampling rate                            : 48.0 kHz
    Frame rate                               : 93.750 FPS (512 SPF)
    Bit depth                                : 24 bits
    Compression mode                         : Lossy
    Stream size                              : 638 MiB (11%)
    Language                                 : Spanish
    Default                                  : Yes
    Forced                                   : No
    Statistics Tags Issue                    : mkvmerge v15.0.0 ('Duel with the Devil') 64-bit 2018-06-12 21:43:40 / mkvmerge v15.0.0 ('Duel with the Devil') 64-bit 2018-06-12 21:43:40 / UTC 2018-06-07T09:38:36Z
    FromStats_BitRate                        : 767999
    FromStats_Duration                       : 01:56:07.958000000
    FromStats_FrameCount                     : 653246
    FromStats_StreamSize                     : 668923904

    Audio #2
    ID                                       : 3
    Format                                   : DTS
    Format/Info                              : Digital Theater Systems
    Mode                                     : 16
    Format settings, Endianness              : Big
    Codec ID                                 : A_DTS
    Duration                                 : 1 h 56 min
    Bit rate mode                            : Constant
    Bit rate                                 : 1 509 kb/s
    Channel(s)                               : 6 channels
    Channel positions                        : Front: L C R, Side: L R, LFE
    Sampling rate                            : 48.0 kHz
    Frame rate                               : 93.750 FPS (512 SPF)
    Bit depth                                : 24 bits
    Compression mode                         : Lossy
    Stream size                              : 1.22 GiB (22%)
    Language                                 : English
    Default                                  : No
    Forced                                   : No
    Statistics Tags Issue                    : mkvmerge v15.0.0 ('Duel with the Devil') 64-bit 2018-06-12 21:43:40 / mkvmerge v15.0.0 ('Duel with the Devil') 64-bit 2018-06-12 21:43:40 / UTC 2018-06-07T09:38:36Z
    FromStats_BitRate                        : 1508999
    FromStats_Duration                       : 01:56:07.958000000
    FromStats_FrameCount                     : 653246
    FromStats_StreamSize                     : 1314330952

    Text #1
    ID                                       : 4
    Format                                   : PGS
    Muxing mode                              : zlib
    Codec ID                                 : S_HDMV/PGS
    Codec ID/Info                            : Picture based subtitle format used on BDs/HD-DVDs
    Language                                 : English
    Default                                  : No
    Forced                                   : No
    Statistics Tags Issue                    : mkvmerge v15.0.0 ('Duel with the Devil') 64-bit 2018-06-12 21:43:40 / mkvmerge v15.0.0 ('Duel with the Devil') 64-bit 2018-06-12 21:43:40 / UTC 2018-06-07T09:38:36Z
    FromStats_BitRate                        : 43650
    FromStats_Duration                       : 01:44:50.868000000
    FromStats_FrameCount                     : 2944
    FromStats_StreamSize                     : 34325089

    Text #2
    ID                                       : 5
    Format                                   : PGS
    Muxing mode                              : zlib
    Codec ID                                 : S_HDMV/PGS
    Codec ID/Info                            : Picture based subtitle format used on BDs/HD-DVDs
    Language                                 : Spanish
    Default                                  : No
    Forced                                   : No
    Statistics Tags Issue                    : mkvmerge v15.0.0 ('Duel with the Devil') 64-bit 2018-06-12 21:43:40 / mkvmerge v15.0.0 ('Duel with the Devil') 64-bit 2018-06-12 21:43:40 / UTC 2018-06-07T09:38:36Z
    FromStats_BitRate                        : 33011
    FromStats_Duration                       : 01:54:50.717000000
    FromStats_FrameCount                     : 2760
    FromStats_StreamSize                     : 28434412

    Text #3
    ID                                       : 6
    Format                                   : PGS
    Muxing mode                              : zlib
    Codec ID                                 : S_HDMV/PGS
    Codec ID/Info                            : Picture based subtitle format used on BDs/HD-DVDs
    Title                                    : Forzados
    Language                                 : Spanish
    Default                                  : Yes
    Forced                                   : Yes
    Statistics Tags Issue                    : mkvmerge v15.0.0 ('Duel with the Devil') 64-bit 2018-06-12 21:43:40 / mkvmerge v15.0.0 ('Duel with the Devil') 64-bit 2018-06-12 21:43:40 / UTC 2018-06-07T09:38:36Z
    FromStats_BitRate                        : 469
    FromStats_Duration                       : 01:50:35.045000000
    FromStats_FrameCount                     : 30
    FromStats_StreamSize                     : 389713

    Menu
    00:00:00.000                             : :Chapter 1
    00:05:25.867                             : :Chapter 2
    00:09:35.742                             : :Chapter 3
    00:13:32.854                             : :Chapter 4
    00:19:32.046                             : :Chapter 5
    00:29:47.911                             : :Chapter 6
    00:34:29.901                             : :Chapter 7
    00:40:00.732                             : :Chapter 8
    00:45:11.334                             : :Chapter 9
    00:52:55.422                             : :Chapter 10
    00:59:37.407                             : :Chapter 11
    01:04:15.769                             : :Chapter 12
    01:12:49.615                             : :Chapter 13
    01:20:03.215                             : :Chapter 14
    01:25:11.898                             : :Chapter 15
    01:31:53.299                             : :Chapter 16
    01:35:23.676                             : :Chapter 17
    01:40:48.668                             : :Chapter 18
    01:45:04.590                             : :Chapter 19
    01:49:44.578                             : :Chapter 20

  • Peso: 5.46 GiB

Sinopsis

Susan Morrow es una galerista afincada en Los Ángeles que comparte una vida llena de lujos, aunque vacía, con Hutton Morrow, su segundo marido. Un día, Susan recibe una novela escrita por su exmarido Edward Sheffiel, del que lleva años sin tener noticias. En una nota le pide que lea la novela inédita y que se ponga en contacto con él, pues se quedará unos días en la ciudad. Es de noche. Susan, sola en la cama, empieza a leer, y es la historia de un matrimonio con una hija que conduciendo por Texas una noche, son perseguidos por otro vehículo…

Ficha técnica

Video trailer de la película

Enlaces de descarga

Rip de Bluray

Descargar Animales nocturnos (2016) Full 1080p Latino




Aportes de DPeliculasHDmega la pass es:dpeliculashdmega.org Aportes de CinemaniaHD la pass es:cinemaniahdd.com

Películas relacionadas

  • Unbroken Path to Redemption (2018) 1080p Latino

    2018
    Unbroken Path to Redemption (2018) 1080p Latino

    0.0 1h 38m 2018

    Zamperini regresa a California donde se casó a regañadientes con Cynthia Applewhite mientras luchaba...

    Director: Harold Cronk

    Género: Drama

    Actores: Will Graham

  • Matar o morir (2018) 1080p Subtitulado

    2018
    Matar o morir (2018) 1080p Subtitulado

    5.0 1h 41m 2018

    Descargar Matar o morir [Peppermint] (2018) 1080p Subtitulado, Mega, Google Drive. LRiley North (Jennifer...

    Director: Pierre Morel

    Género: Acción

    Actores: YaYa Gosselin

  • Ni en tus sueños (2010) Full 1080p Latino

    2010
    Ni en tus sueños (2010) Full 1080p Latino

    0.0 1h 44m 2010

    Descargar Ni en tus sueños (2010) Full 1080p Latino, Mega, Google Drive. Kirk (Jay Baruchel, "Tropic...

    Director: Richard L. Fox

    Género: Comedia

    Actores: Yan Xi

  • La Chica de La Capa Roja (2011) Full 1080p Latino

    2011
    La Chica de La Capa Roja (2011) Full 1080p Latino

    4.7 1h 40m 2011

    Descargar La Chica de La Capa Roja (2011) Full 1080p Latino, Mega, Google Drive. La joven Valerie se...

    Director: Kimi Webber

    Género: Fantasía

    Actores: Virginia Madsen

  • La Chica de La Capa Roja (2011) 1080p Latino

    2011
    La Chica de La Capa Roja (2011) 1080p Latino

    0.0 1h 40m 2011

    Descargar La Chica de La Capa Roja (2011) 1080p Latino, Mega, Google Drive. La joven Valerie se encuentra...

    Director: Kimi Webber

    Género: Fantasía

    Actores: Virginia Madsen

Comentarios 0