American Horror Story Murder House (2011) Preimera Temporada Full 1080p Latino

1.183 vistas
1 estrella2 estrellas3 estrellas4 estrellas5 estrellas (5 votos, promedio: 5,00 de 5)
Cargando…

Información de American Horror Story Murder House (2011) Preimera Temporada Full 1080p Latino

Datos de la película

  • Calidad: Full 1080p
  • Audio: Español Latino AC3 2.0 DVD - Ingles DTS 5.1 BLURAY
  • Subtitulos: Español Latino PGS - Ingles PGS
  • Resolución: 1920x1080p
  • Formato: MKV
  • Codec: H.264
  • Encoder: Dracarys
  • Mediainfo: Clic para Mostrar Datos Ver
  • Format                                   : Matroska
    Format version                           : Version 4 / Version 2
    File size                                : 3.08 GiB
    Duration                                 : 39 min 16 s
    Overall bit rate                         : 11.2 Mb/s
    Movie name                               : CinemaniaHDD.net
    Encoded date                             : UTC 2018-08-29 02:11:06 / UTC 2018-08-24T16:07:33Z
    Writing application                      : mkvmerge v15.0.0 ('Duel with the Devil') 64-bit
    Writing library                          : libebml v1.3.5 + libmatroska v1.4.5 / Lavf57.7.2

    Video
    ID                                       : 1
    Format                                   : AVC
    Format/Info                              : Advanced Video Codec
    Format profile                           : High@L4.1
    Format settings                          : CABAC / 4 Ref Frames
    Format settings, CABAC                   : Yes
    Format settings, RefFrames               : 4 frames
    Codec ID                                 : V_MPEG4/ISO/AVC
    Duration                                 : 39 min 16 s
    Bit rate                                 : 9 246 kb/s
    Width                                    : 1 920 pixels
    Height                                   : 1 080 pixels
    Display aspect ratio                     : 16:9
    Frame rate mode                          : Constant
    Frame rate                               : 23.976 (24000/1001) FPS
    Color space                              : YUV
    Chroma subsampling                       : 4:2:0
    Bit depth                                : 8 bits
    Scan type                                : Progressive
    Bits/(Pixel*Frame)                       : 0.186
    Stream size                              : 2.54 GiB (82%)
    Title                                    : American Horror Story Murder House (2011) S01E04 [Halloween (Parte 1)] Full 1080p Latino
    Writing library                          : x264 core 148 r2708 86b7198
    Encoding settings                        : cabac=1 / ref=4 / deblock=1:0:0 / analyse=0x3:0x133 / me=esa / subme=10 / psy=1 / psy_rd=1.00:0.00 / mixed_ref=1 / me_range=24 / chroma_me=1 / trellis=2 / 8x8dct=1 / cqm=0 / deadzone=21,11 / fast_pskip=1 / chroma_qp_offset=-2 / threads=34 / lookahead_threads=5 / sliced_threads=0 / nr=0 / decimate=1 / interlaced=0 / bluray_compat=0 / constrained_intra=0 / bframes=8 / b_pyramid=2 / b_adapt=2 / b_bias=0 / direct=3 / weightb=1 / open_gop=0 / weightp=2 / keyint=240 / keyint_min=24 / scenecut=40 / intra_refresh=0 / rc_lookahead=60 / rc=crf / mbtree=1 / crf=20.0 / qcomp=0.60 / qpmin=0 / qpmax=69 / qpstep=4 / vbv_maxrate=62500 / vbv_bufsize=78125 / crf_max=0.0 / nal_hrd=none / filler=0 / ip_ratio=1.40 / aq=1:1.00
    Language                                 : English
    Default                                  : Yes
    Forced                                   : No
    Color range                              : Limited
    Color primaries                          : BT.709
    Transfer characteristics                 : BT.709
    Matrix coefficients                      : BT.709
    Statistics Tags Issue                    : mkvmerge v15.0.0 ('Duel with the Devil') 64-bit 2018-08-29 02:11:06 / mkvmerge v15.0.0 ('Duel with the Devil') 64-bit 2018-08-29 02:11:06 / UTC 2018-08-24T16:07:33Z
    FromStats_BitRate                        : 9402696
    FromStats_Duration                       : 00:39:16.396000000
    FromStats_FrameCount                     : 56497
    FromStats_StreamSize                     : 2769559572

    Audio #1
    ID                                       : 2
    Format                                   : AC-3
    Format/Info                              : Audio Coding 3
    Format settings, Endianness              : Big
    Codec ID                                 : A_AC3
    Duration                                 : 39 min 16 s
    Bit rate mode                            : Constant
    Bit rate                                 : 256 kb/s
    Channel(s)                               : 2 channels
    Channel positions                        : Front: L R
    Sampling rate                            : 48.0 kHz
    Frame rate                               : 31.250 FPS (1536 SPF)
    Bit depth                                : 16 bits
    Compression mode                         : Lossy
    Stream size                              : 71.9 MiB (2%)
    Language                                 : Spanish
    Service kind                             : Complete Main
    Default                                  : Yes
    Forced                                   : No
    Statistics Tags Issue                    : mkvmerge v15.0.0 ('Duel with the Devil') 64-bit 2018-08-29 02:11:06 / mkvmerge v15.0.0 ('Duel with the Devil') 64-bit 2018-08-29 02:11:06 / UTC 2018-08-24T16:07:33Z
    FromStats_BitRate                        : 256000
    FromStats_Duration                       : 00:39:16.128000000
    FromStats_FrameCount                     : 73629
    FromStats_StreamSize                     : 75396096

    Audio #2
    ID                                       : 3
    Format                                   : DTS
    Format/Info                              : Digital Theater Systems
    Mode                                     : 16
    Format settings, Endianness              : Big
    Codec ID                                 : A_DTS
    Duration                                 : 39 min 16 s
    Bit rate mode                            : Constant
    Bit rate                                 : 1 509 kb/s
    Channel(s)                               : 6 channels
    Channel positions                        : Front: L C R, Side: L R, LFE
    Sampling rate                            : 48.0 kHz
    Frame rate                               : 93.750 FPS (512 SPF)
    Bit depth                                : 24 bits
    Compression mode                         : Lossy
    Stream size                              : 424 MiB (13%)
    Language                                 : English
    Default                                  : No
    Forced                                   : No
    Statistics Tags Issue                    : mkvmerge v15.0.0 ('Duel with the Devil') 64-bit 2018-08-29 02:11:06 / mkvmerge v15.0.0 ('Duel with the Devil') 64-bit 2018-08-29 02:11:06 / UTC 2018-08-24T16:07:33Z
    FromStats_BitRate                        : 1508999
    FromStats_Duration                       : 00:39:16.395000000
    FromStats_FrameCount                     : 220912
    FromStats_StreamSize                     : 444474944

    Text #1
    ID                                       : 4
    Format                                   : PGS
    Muxing mode                              : zlib
    Codec ID                                 : S_HDMV/PGS
    Codec ID/Info                            : Picture based subtitle format used on BDs/HD-DVDs
    Language                                 : English
    Default                                  : No
    Forced                                   : No
    Statistics Tags Issue                    : mkvmerge v15.0.0 ('Duel with the Devil') 64-bit 2018-08-29 02:11:06 / mkvmerge v15.0.0 ('Duel with the Devil') 64-bit 2018-08-29 02:11:06 / UTC 2018-08-24T16:07:33Z
    FromStats_BitRate                        : 79887
    FromStats_Duration                       : 00:39:09.513000000
    FromStats_FrameCount                     : 1230
    FromStats_StreamSize                     : 23462153

    Text #2
    ID                                       : 5
    Format                                   : PGS
    Muxing mode                              : zlib
    Codec ID                                 : S_HDMV/PGS
    Codec ID/Info                            : Picture based subtitle format used on BDs/HD-DVDs
    Language                                 : Spanish
    Default                                  : No
    Forced                                   : No
    Statistics Tags Issue                    : mkvmerge v15.0.0 ('Duel with the Devil') 64-bit 2018-08-29 02:11:06 / mkvmerge v15.0.0 ('Duel with the Devil') 64-bit 2018-08-29 02:11:06 / UTC 2018-08-24T16:07:33Z
    FromStats_BitRate                        : 67978
    FromStats_Duration                       : 00:38:02.283000000
    FromStats_FrameCount                     : 1030
    FromStats_StreamSize                     : 19393341

    Menu
    00:00:00.000                             : :Chapter 1
    00:05:04.763                             : :Chapter 2
    00:09:29.360                             : :Chapter 3
    00:12:09.354                             : :Chapter 4
    00:14:07.555                             : :Chapter 5
    00:16:53.721                             : :Chapter 6
    00:18:57.595                             : :Chapter 7
    00:23:29.950                             : :Chapter 8
    00:26:09.068                             : :Chapter 9
    00:30:51.808                             : :Chapter 10
    00:34:02.791                             : :Chapter 11
    00:36:38.863                             : :Chapter 12

  • Peso: 3.10 GiB X Capitulo 12 Total

Sinopsis

American Horror Story es una serie antológica de televisión, creada y producida por Ryan Murphy y Brad Falchuk. Cada una de sus temporadas narra una trama independiente, ambientada en lugares diferentes y cerrando siempre la historia; donde muchos actores repiten, pero siempre interpretando personajes distintos

Ficha técnica

Video trailer de la película

Enlaces de descarga

Rip de Bluray

Descargar American Horror Story Murder House (2011) Preimera Temporada Full 1080p Latino




Aportes de DPeliculasHDmega la pass es:dpeliculashdmega.org Aportes de CinemaniaHD la pass es:cinemaniahdd.com

Películas relacionadas

  • Godzilla (2014) 1080p Latino

    2014
    Godzilla (2014) 1080p Latino

    0.0 2h 3m 2014

    Descargar Godzilla (2014) 1080p Latino, Mega, Google Drive, Torrent. Gareth Edwards dirige este "reboot",...

    Director: Jessica Clothier

    Género: Acción

    Actores: Yuki Morita

  • Godzilla (2014) Full 1080p Latino

    2014
    Godzilla (2014) Full 1080p Latino

    4.2 2h 3m 2014

    Descargar Godzilla (2014) Full 1080p Latino, Mega, Google Drive, Torrent. Gareth Edwards dirige este...

    Director: Jessica Clothier

    Género: Acción

    Actores: Yuki Morita

  • Un pequeño favor (2018) Full 1080p Latino

    2018
    Un pequeño favor (2018) Full 1080p Latino

    5.0 1h 57m 2018

    Descargar Un pequeño favor (2018) Full 1080p Latino, Mega, Google Drive, Torrent. Stephanie es una joven...

    Director: Paul Feig

    Género: Crimen

    Actores: Zach Smadu

Comentarios 5
  • leonardo Flores Gama - 20 septiembre, 2018

    muchas gracias

  • Brian Guillen - 04 septiembre, 2018

    hola, piensan seguir subiendo las otras temporadas? saludos

    • Dracarys - 04 septiembre, 2018

      se subiran todas

  • frank - 30 agosto, 2018

    exelente muchas gracias

  • Kevin - 29 agosto, 2018

    Descargado de GDrive, todo perfecto. Excelente calidad. Gracias por el Aporte!