×

¿Problemas para descargar con Mozilla, EDGE? Deshabilita la opción "Abrir vinculos en una pestaña nueva" tal como lo muestra ésta imagen.

Cuestión de tiempo (2013) REMUX 1080p Latino

191 vistas

Información de Cuestión de tiempo (2013) REMUX 1080p Latino

Datos de la película

  • Calidad: Full 1080p
  • Audio: Se especifica abajo de la Sinopsis
  • Subtitulos: Español Latino PGS - Ingles PGS
  • Resolución: 1920x1080p
  • Formato: MKV
  • Codec: H.264
  • Encoder: CinefiloCool
  • Mediainfo: Clic para Mostrar Datos Ver
  • Cuestion De Tiempo (2013) REMUX 1080p Latino-CMHDD.mkv
    Format                      : Matroska
    Format version              : Version 4
    File size                   : 31.8 GiB
    Duration                    : 2 h 3 min
    Overall bit rate mode       : Variable
    Overall bit rate            : 36.9 Mb/s
    Movie name                  : About Time (2013) CinemaniaHDD.Net
    Encoded date                : UTC 2021-09-27 07:13:06
    Writing application         : mkvmerge v56.1.0 ('My Friend') 64-bit
    Writing library             : libebml v1.4.2 + libmatroska v1.6.4
    Attachments                 : CINEMANIAHD.png

    Video
    ID                          : 1
    Format                      : AVC
    Format/Info                 : Advanced Video Codec
    Format profile              : High@L4.1
    Format settings             : CABAC / 4 Ref Frames
    Format settings, CABAC      : Yes
    Format settings, Reference  : 4 frames
    Codec ID                    : V_MPEG4/ISO/AVC
    Duration                    : 2 h 3 min
    Bit rate mode               : Variable
    Bit rate                    : 31.7 Mb/s
    Maximum bit rate            : 35.0 Mb/s
    Width                       : 1 920 pixels
    Height                      : 1 080 pixels
    Display aspect ratio        : 16:9
    Frame rate mode             : Constant
    Frame rate                  : 23.976 (24000/1001) FPS
    Color space                 : YUV
    Chroma subsampling          : 4:2:0
    Bit depth                   : 8 bits
    Scan type                   : Progressive
    Bits/(Pixel*Frame)          : 0.638
    Stream size                 : 27.4 GiB (86%)
    Title                       : REMUX HD1080p [CinemaniaHDD]
    Default                     : Yes
    Forced                      : Yes

    Audio #1
    ID                          : 2
    Format                      : DTS
    Format/Info                 : Digital Theater Systems
    Codec ID                    : A_DTS
    Duration                    : 2 h 3 min
    Bit rate mode               : Constant
    Bit rate                    : 768 kb/s
    Channel(s)                  : 6 channels
    Channel layout              : C L R Ls Rs LFE
    Sampling rate               : 48.0 kHz
    Frame rate                  : 93.750 FPS (512 SPF)
    Bit depth                   : 24 bits
    Compression mode            : Lossy
    Stream size                 : 678 MiB (2%)
    Title                       : Español Latino [CinemaniaHDD]
    Language                    : Spanish
    Default                     : Yes
    Forced                      : Yes

    Audio #2
    ID                          : 3
    Format                      : E-AC-3
    Format/Info                 : Enhanced AC-3
    Commercial name             : Dolby Digital Plus
    Codec ID                    : A_EAC3
    Duration                    : 2 h 3 min
    Bit rate mode               : Constant
    Bit rate                    : 640 kb/s
    Channel(s)                  : 6 channels
    Channel layout              : L R C LFE Ls Rs
    Sampling rate               : 48.0 kHz
    Frame rate                  : 31.250 FPS (1536 SPF)
    Compression mode            : Lossy
    Stream size                 : 565 MiB (2%)
    Title                       : Español Latino EAC3 [CinemaniaHDD]
    Language                    : Spanish
    Service kind                : Complete Main
    Default                     : No
    Forced                      : No

    Audio #3
    ID                          : 4
    Format                      : DTS XLL
    Format/Info                 : Digital Theater Systems
    Commercial name             : DTS-HD Master Audio
    Codec ID                    : A_DTS
    Duration                    : 2 h 3 min
    Bit rate mode               : Variable
    Bit rate                    : 3 717 kb/s
    Channel(s)                  : 6 channels
    Channel layout              : C L R Ls Rs LFE
    Sampling rate               : 48.0 kHz
    Frame rate                  : 93.750 FPS (512 SPF)
    Bit depth                   : 24 bits
    Compression mode            : Lossless
    Stream size                 : 3.20 GiB (10%)
    Title                       : Ingles [CinemaniaHDD]
    Language                    : English
    Default                     : No
    Forced                      : No

    Text #1
    ID                          : 5
    Format                      : PGS
    Muxing mode                 : zlib
    Codec ID                    : S_HDMV/PGS
    Codec ID/Info               : Picture based subtitle format used on BDs/HD-DVDs
    Duration                    : 1 s 793 ms
    Bit rate                    : 89.3 kb/s
    Count of elements           : 2
    Stream size                 : 19.5 KiB (0%)
    Title                       : Forzados-PGS [CinemaniaHDD]
    Language                    : Spanish
    Default                     : No
    Forced                      : No

    Text #2
    ID                          : 6
    Format                      : PGS
    Muxing mode                 : zlib
    Codec ID                    : S_HDMV/PGS
    Codec ID/Info               : Picture based subtitle format used on BDs/HD-DVDs
    Duration                    : 1 h 56 min
    Bit rate                    : 36.6 kb/s
    Count of elements           : 3146
    Stream size                 : 30.4 MiB (0%)
    Title                       : Español-PGS [CinemaniaHDD]
    Language                    : Spanish
    Default                     : No
    Forced                      : No

    Text #3
    ID                          : 7
    Format                      : PGS
    Muxing mode                 : zlib
    Codec ID                    : S_HDMV/PGS
    Codec ID/Info               : Picture based subtitle format used on BDs/HD-DVDs
    Duration                    : 1 h 56 min
    Bit rate                    : 45.6 kb/s
    Count of elements           : 4058
    Stream size                 : 37.8 MiB (0%)
    Title                       : Ingles-PGS [CinemaniaHDD]
    Language                    : English
    Default                     : No
    Forced                      : No

    Text #4
    ID                          : 8
    Format                      : UTF-8
    Codec ID                    : S_TEXT/UTF8
    Codec ID/Info               : UTF-8 Plain Text
    Duration                    : 1 h 23 min
    Bit rate                    : 0 b/s
    Count of elements           : 3
    Stream size                 : 74.0 Bytes (0%)
    Title                       : Forzados-SRT [CinemaniaHDD]
    Language                    : Spanish
    Default                     : Yes
    Forced                      : Yes

    Text #5
    ID                          : 9
    Format                      : UTF-8
    Codec ID                    : S_TEXT/UTF8
    Codec ID/Info               : UTF-8 Plain Text
    Duration                    : 1 h 56 min
    Bit rate                    : 60 b/s
    Count of elements           : 1573
    Stream size                 : 51.7 KiB (0%)
    Title                       : Español-SRT [CinemaniaHDD]
    Language                    : Spanish
    Default                     : No
    Forced                      : No

    Menu
    00:00:00.000                : Chapter 1
    00:03:58.071                : Chapter 2
    00:10:11.903                : Chapter 3
    00:17:26.295                : Chapter 4
    00:20:38.112                : Chapter 5
    00:26:04.396                : Chapter 6
    00:32:44.004                : Chapter 7
    00:40:26.591                : Chapter 8
    00:45:17.965                : Chapter 9
    00:49:43.439                : Chapter 10
    00:54:50.871                : Chapter 11
    01:03:44.529                : Chapter 12
    01:09:29.374                : Chapter 13
    01:16:28.000                : Chapter 14
    01:21:35.724                : Chapter 15
    01:27:24.448                : Chapter 16
    01:34:52.812                : Chapter 17
    01:43:48.848                : Chapter 18
    01:49:32.316                : Chapter 19
    01:57:03.141                : Chapter 20

  • Peso: 31.8 GiB

Sinopsis

Descargar Cuestión de tiempo (2013) REMUX 1080p Latino. La trama de la película gira en torno a un joven llamado Tim Lake. El protagonista y su familia tienen el curioso don de poder viajar a través del tiempo. Al descubrir esta cualidad, Tim empieza a beneficiarse de ello para cambiar diferentes aspectos de su vida. Se enamora de una chica, Mary, a la que conoce tras transladarse a vivir a Londres por motivos de trabajo. Su historia de amor se verá beneficiada gracias al don de Tim, sin embargo, el protagonista no tardará en darse cuenta de que su habilidad no es capaz de ampararle en algunos problemas y cuestiones familiares.

Audio Español Latino EAC3 5.1 NF – DTS 5.1 Bluray – Ingles DTS-HD 5.1 Bluray

Disponible Solo Para VIP!!! 😀

Ficha técnica

Video trailer de la película

Enlaces de descarga

Rip de Bluray

Descargar Cuestión de tiempo (2013) REMUX 1080p Latino


Aportes de DPeliculasHDmega la pass es:dpeliculashdmega.org Aportes de CinemaniaHD la pass es:cinemaniahdd.com
Guardado en : Drama , Fantasía , Remux , Romance

Películas relacionadas

  • Noche sin paz (2022) REMUX 1080p Latino

    Noche sin paz (2022) REMUX 1080p Latino

    2022
    Noche sin paz (2022) REMUX 1080p Latino

    1h 41m 2022

    Descargar Noche sin paz (2022) REMUX 1080p Latino. Cuando un equipo de mercenarios irrumpe en Nochebuena...

    Director: Tyshana Hobson

    Género: Acción

    Actores: Yoon Cha-Lee

  • Narvik (2022) NF WEB-DL 1080p Latino

    Narvik (2022) NF WEB-DL 1080p Latino

    2022
    Narvik (2022) NF WEB-DL 1080p Latino

    1h 48m 2022

    Descargar Narvik (2022) NF WEB-DL 1080p Latino. Abril de 1940. Los ojos del mundo están puestos en Narvik,...

    Director: Suzanne Svae-Johansen

    Género: Acción

    Actores: Torfinn Nag

descargar Cuestión de tiempo (2013) REMUX 1080p Latino Full 1080p 1080p gratis, Cuestión de tiempo (2013) REMUX 1080p Latino Full 1080p mega 1 link, Cuestión de tiempo (2013) REMUX 1080p Latino Full 1080p pelicula completa, descargar Cuestión de tiempo (2013) REMUX 1080p Latino Full 1080p gratis en mega.

Cuestión de tiempo (2013) REMUX 1080p Latino pelicula full hd, Cuestión de tiempo (2013) REMUX 1080p Latino mega latino, Cuestión de tiempo (2013) REMUX 1080p Latino 4k latino, Cuestión de tiempo (2013) REMUX 1080p Latino pelicula completa, Cuestión de tiempo (2013) REMUX 1080p Latino descargar gratis, descargar Cuestión de tiempo (2013) REMUX 1080p Latino pelicula latino, Cuestión de tiempo (2013) REMUX 1080p Latino 1 link mega, Cuestión de tiempo (2013) REMUX 1080p Latino 1 link google drive, Cuestión de tiempo (2013) REMUX 1080p Latino hd 1080p latino.
Comentarios 0