A.I. Artificial Intelligence (2001) REMUX 1080p Latino – CMHDD

44 vistas
1 estrella2 estrellas3 estrellas4 estrellas5 estrellas (Ninguna valoración todavía)
Cargando...

Información de A.I. Artificial Intelligence (2001) REMUX 1080p Latino – CMHDD

Datos de la película

  • Calidad: Full 1080p
  • Audio: Español Latino AC3 5.1 BLURAY - Ingles DTS 5.1 BLURAY
  • Subtitulos: Español Latino PGS
  • Resolución: 1920x1080p
  • Formato: MKV
  • Codec: H.264
  • Encoder: Dracarys
  • Mediainfo: Clic para Mostrar Datos Ver
  • Format                      : Matroska
    Format version              : Version 4
    File size                   : 34.1 GiB
    Duration                    : 2 h 25 min
    Overall bit rate mode       : Variable
    Overall bit rate            : 33.5 Mb/s
    Movie name                  : A.I. Artificial Intelligence (2001) REMUX 1080p Latino - CMHDD
    Encoded date                : UTC 2021-06-02 04:29:18
    Writing application         : mkvmerge v56.1.0 ('My Friend') 64-bit
    Writing library             : libebml v1.4.2 + libmatroska v1.6.4
    Cover                       : Yes
    Attachments                 : cover.jpg

    Video
    ID                          : 1
    ID in the original source m : 4113 (0x1011)
    Format                      : AVC
    Format/Info                 : Advanced Video Codec
    Format profile              : High@L4.1
    Format settings             : CABAC / 4 Ref Frames
    Format settings, CABAC      : Yes
    Format settings, Reference  : 4 frames
    Codec ID                    : V_MPEG4/ISO/AVC
    Duration                    : 2 h 25 min
    Bit rate mode               : Variable
    Bit rate                    : 28.8 Mb/s
    Maximum bit rate            : 38.0 Mb/s
    Width                       : 1 920 pixels
    Height                      : 1 080 pixels
    Display aspect ratio        : 16:9
    Frame rate mode             : Constant
    Frame rate                  : 23.976 (24000/1001) FPS
    Color space                 : YUV
    Chroma subsampling          : 4:2:0
    Bit depth                   : 8 bits
    Scan type                   : Progressive
    Bits/(Pixel*Frame)          : 0.579
    Stream size                 : 29.3 GiB (86%)
    Default                     : Yes
    Forced                      : No
    Color range                 : Limited
    Color primaries             : BT.709
    Transfer characteristics    : BT.709
    Matrix coefficients         : BT.709
    Original source medium      : Blu-ray

    Audio #1
    ID                          : 2
    ID in the original source m : 4352 (0x1100)
    Format                      : DTS ES XLL
    Format/Info                 : Digital Theater Systems
    Commercial name             : DTS-HD Master Audio
    Codec ID                    : A_DTS
    Duration                    : 2 h 25 min
    Bit rate mode               : Variable
    Bit rate                    : 4 053 kb/s
    Channel(s)                  : 6 channels
    Channel(s)_Original         : 7 channels
    ChannelLayout_Original      : C L R Ls Rs LFE Cs
    Sampling rate               : 48.0 kHz
    Frame rate                  : 93.750 FPS (512 SPF)
    Bit depth                   : 24 bits
    Compression mode            : Lossless
    Stream size                 : 4.13 GiB (12%)
    Language                    : English
    Default                     : No
    Forced                      : No
    Original source medium      : Blu-ray

    Audio #2
    ID                          : 3
    ID in the original source m : 4354 (0x1102)
    Format                      : AC-3
    Format/Info                 : Audio Coding 3
    Commercial name             : Dolby Digital
    Codec ID                    : A_AC3
    Duration                    : 2 h 25 min
    Bit rate mode               : Constant
    Bit rate                    : 640 kb/s
    Channel(s)                  : 6 channels
    Channel layout              : L R C LFE Ls Rs
    Sampling rate               : 48.0 kHz
    Frame rate                  : 31.250 FPS (1536 SPF)
    Compression mode            : Lossy
    Stream size                 : 668 MiB (2%)
    Language                    : Spanish
    Service kind                : Complete Main
    Default                     : Yes
    Forced                      : No
    Original source medium      : Blu-ray

    Text
    ID                          : 4
    ID in the original source m : 4611 (0x1203)
    Format                      : PGS
    Muxing mode                 : zlib
    Codec ID                    : S_HDMV/PGS
    Codec ID/Info               : Picture based subtitle format used on BDs/HD-DVDs
    Duration                    : 2 h 16 min
    Bit rate                    : 33.6 kb/s
    Count of elements           : 2326
    Stream size                 : 32.9 MiB (0%)
    Language                    : Spanish
    Default                     : No
    Forced                      : No
    Original source medium      : Blu-ray

    Menu
    00:00:00.000                : Chapter 01
    00:07:09.971                : Chapter 02
    00:10:12.653                : Chapter 03
    00:15:23.130                : Chapter 04
    00:18:31.318                : Chapter 05
    00:21:42.301                : Chapter 06
    00:24:21.418                : Chapter 07
    00:28:41.636                : Chapter 08
    00:30:21.736                : Chapter 09
    00:33:56.159                : Chapter 10
    00:35:48.980                : Chapter 11
    00:39:57.603                : Chapter 12
    00:45:27.307                : Chapter 13
    00:53:46.431                : Chapter 14
    00:57:45.837                : Chapter 15
    01:05:52.949                : Chapter 16
    01:09:14.441                : Chapter 17
    01:17:48.580                : Chapter 18
    01:22:28.902                : Chapter 19
    01:25:37.549                : Chapter 20
    01:31:03.082                : Chapter 21
    01:33:05.413                : Chapter 22
    01:35:07.284                : Chapter 23
    01:37:55.744                : Chapter 24
    01:43:43.634                : Chapter 25
    01:46:51.822                : Chapter 26
    01:49:21.304                : Chapter 27
    01:55:41.267                : Chapter 28
    02:01:33.911                : Chapter 29
    02:07:08.203                : Chapter 30
    02:11:42.185                : Chapter 31
    02:18:38.727                : Chapter 32

  • Peso: 34.1 GiB

Sinopsis

En un futuro donde los avances científicos hacen posible la existencia, los humanos confían todos los aspectos de sus vidas a sofisticados robots denominados Mecas. La emoción es la última frontera en la evolución de las máquinas. Pero cuando un avanzado niño robótico llamado David es programado para amar, los humanos no están preparados para las consecuencias.

Ficha técnica

Video trailer de la película

Enlaces de descarga

Rip de Bluray

Descargar A.I. Artificial Intelligence (2001) REMUX 1080p Latino – CMHDD


Aportes de DPeliculasHDmega la pass es:dpeliculashdmega.org Aportes de CinemaniaHD la pass es:cinemaniahdd.com
Guardado en : Aventura , Ciencia ficción , Drama

Películas relacionadas

A.I. Artificial Intelligence (2001) REMUX 1080p Latino – CMHDD pelicula full hd, A.I. Artificial Intelligence (2001) REMUX 1080p Latino – CMHDD mega latino, A.I. Artificial Intelligence (2001) REMUX 1080p Latino – CMHDD 4k latino, A.I. Artificial Intelligence (2001) REMUX 1080p Latino – CMHDD pelicula completa, A.I. Artificial Intelligence (2001) REMUX 1080p Latino – CMHDD descargar gratis, descargar A.I. Artificial Intelligence (2001) REMUX 1080p Latino – CMHDD pelicula latino, A.I. Artificial Intelligence (2001) REMUX 1080p Latino – CMHDD 1 link mega, A.I. Artificial Intelligence (2001) REMUX 1080p Latino – CMHDD 1 link google drive, A.I. Artificial Intelligence (2001) REMUX 1080p Latino – CMHDD hd 1080p latino.
Comentarios 0