×

¿Problemas para descargar con Mozilla, EDGE? Deshabilita la opción "Abrir vinculos en una pestaña nueva" tal como lo muestra ésta imagen.

‎Combate en el Desierto (2019) WEB-DL 1080p Latino – CMHDD

235 vistas

Información de ‎Combate en el Desierto (2019) WEB-DL 1080p Latino – CMHDD

Datos de la película

  • Calidad: WEBDL
  • Audio: Español Latino AC3 2.0 WEB-DL - Ingles AC3 5.1 WEB-DL
  • Subtitulos: Español Latino SRT
  • Resolución: 1920x802p
  • Formato: MKV
  • Codec: H.264
  • Encoder: CMHDD
  • Mediainfo: Clic para Mostrar Datos Ver
  • Format                      : Matroska
    Format version              : Version 4
    File size                   : 4.10 GiB
    Duration                    : 1 h 56 min
    Overall bit rate            : 5 032 kb/s
    Movie name                  : ‎Combate en el Desierto (2019) WEB-DL 1080p Latino - CMHDD
    Encoded date                : UTC 2021-07-29 01:31:46
    Writing application         : mkvmerge v56.1.0 ('My Friend') 64-bit
    Writing library             : libebml v1.4.2 + libmatroska v1.6.4

    Video
    ID                          : 1
    Format                      : AVC
    Format/Info                 : Advanced Video Codec
    Format profile              : High@L4
    Format settings             : CABAC / 5 Ref Frames
    Format settings, CABAC      : Yes
    Format settings, Reference  : 5 frames
    Codec ID                    : V_MPEG4/ISO/AVC
    Duration                    : 1 h 56 min
    Bit rate                    : 4 519 kb/s
    Width                       : 1 920 pixels
    Height                      : 802 pixels
    Display aspect ratio        : 2.40:1
    Frame rate mode             : Constant
    Frame rate                  : 23.976 FPS
    Color space                 : YUV
    Chroma subsampling          : 4:2:0
    Bit depth                   : 8 bits
    Scan type                   : Progressive
    Bits/(Pixel*Frame)          : 0.122
    Stream size                 : 3.68 GiB (90%)
    Language                    : English
    Default                     : Yes
    Forced                      : No
    Color range                 : Limited
    Color primaries             : BT.709
    Transfer characteristics    : BT.709
    Matrix coefficients         : BT.709

    Audio #1
    ID                          : 2
    Format                      : AAC LC
    Format/Info                 : Advanced Audio Codec Low Complexity
    Codec ID                    : A_AAC-2
    Duration                    : 1 h 56 min
    Bit rate                    : 127 kb/s
    Channel(s)                  : 2 channels
    Channel layout              : L R
    Sampling rate               : 48.0 kHz
    Frame rate                  : 46.875 FPS (1024 SPF)
    Compression mode            : Lossy
    Delay relative to video     : -42 ms
    Stream size                 : 106 MiB (3%)
    Language                    : Spanish
    Default                     : Yes
    Forced                      : No

    Audio #2
    ID                          : 3
    Format                      : AC-3
    Format/Info                 : Audio Coding 3
    Commercial name             : Dolby Digital
    Codec ID                    : A_AC3
    Duration                    : 1 h 56 min
    Bit rate mode               : Constant
    Bit rate                    : 384 kb/s
    Channel(s)                  : 6 channels
    Channel layout              : L R C LFE Ls Rs
    Sampling rate               : 48.0 kHz
    Frame rate                  : 31.250 FPS (1536 SPF)
    Compression mode            : Lossy
    Delay relative to video     : -42 ms
    Stream size                 : 320 MiB (8%)
    Language                    : English
    Service kind                : Complete Main
    Default                     : No
    Forced                      : No

    Text
    ID                          : 4
    Format                      : UTF-8
    Codec ID                    : S_TEXT/UTF8
    Codec ID/Info               : UTF-8 Plain Text
    Duration                    : 1 h 51 min
    Bit rate                    : 35 b/s
    Count of elements           : 877
    Stream size                 : 29.5 KiB (0%)
    Language                    : Spanish
    Default                     : Yes
    Forced                      : No

    Menu
    00:00:00.000                : 1
    00:15:51.659                : 2
    00:34:26.563                : 3
    00:49:19.412                : 4
    01:05:34.676                : 5
    01:20:40.037                : 6
    01:35:31.427                : 7
    01:52:26.691                : 8

  • Peso: 4.10 GiB

Sinopsis

Yehia, conocido como Faraón, reúne a un grupo de seis de sus viejos amigos, cada uno con una habilidad de combate única, para viajar a Siria con el pretexto de cazar recompensas. Su verdadera misión es salvar a su hijo secuestrado de las manos de Franco y sus gánsteres del ISIS después de que agredieron a refugiados sirios, incluida la esposa de Yehia, y se llevaron a los niños a un distrito que actualmente está bajo su control.

Ficha técnica

Video trailer de la película

Enlaces de descarga

Rip de Bluray

Descargar ‎Combate en el Desierto (2019) WEB-DL 1080p Latino – CMHDD




Aportes de DPeliculasHDmega la pass es:dpeliculashdmega.org Aportes de CinemaniaHD la pass es:cinemaniahdd.com
Guardado en : Acción , Suspenso

Películas relacionadas

descargar ‎Combate en el Desierto (2019) WEB-DL 1080p Latino – CMHDD WEBDL 1080p gratis, ‎Combate en el Desierto (2019) WEB-DL 1080p Latino – CMHDD WEBDL mega 1 link, ‎Combate en el Desierto (2019) WEB-DL 1080p Latino – CMHDD WEBDL pelicula completa, descargar ‎Combate en el Desierto (2019) WEB-DL 1080p Latino – CMHDD WEBDL gratis en mega.

‎Combate en el Desierto (2019) WEB-DL 1080p Latino – CMHDD pelicula full hd, ‎Combate en el Desierto (2019) WEB-DL 1080p Latino – CMHDD mega latino, ‎Combate en el Desierto (2019) WEB-DL 1080p Latino – CMHDD 4k latino, ‎Combate en el Desierto (2019) WEB-DL 1080p Latino – CMHDD pelicula completa, ‎Combate en el Desierto (2019) WEB-DL 1080p Latino – CMHDD descargar gratis, descargar ‎Combate en el Desierto (2019) WEB-DL 1080p Latino – CMHDD pelicula latino, ‎Combate en el Desierto (2019) WEB-DL 1080p Latino – CMHDD 1 link mega, ‎Combate en el Desierto (2019) WEB-DL 1080p Latino – CMHDD 1 link google drive, ‎Combate en el Desierto (2019) WEB-DL 1080p Latino – CMHDD hd 1080p latino.
Comentarios 0